×

¿Problemas para descargar con Mozilla, EDGE? Deshabilita la opción "Abrir vinculos en una pestaña nueva" tal como lo muestra ésta imagen.

Indiana Jones – And the Kingdom of the Crystal Skull (2008) REMUX 4K HDR Latino – CMHDD

301 vistas

Información de Indiana Jones – And the Kingdom of the Crystal Skull (2008) REMUX 4K HDR Latino – CMHDD

Datos de la película

  • Calidad: 4K HDR
  • Audio: Se especifica abajo de la Sinopsis
  • Subtitulos: Español Latino PGS
  • Resolución: 3840z2160p
  • Formato: MKV
  • Codec: HEVC
  • Encoder: Dracarys
  • Mediainfo: Clic para Mostrar Datos Ver
  • Format                      : Matroska
    Format version              : Version 4
    File size                   : 51.5 GiB
    Duration                    : 2 h 2 min
    Overall bit rate mode       : Variable
    Overall bit rate            : 60.1 Mb/s
    Movie name                  : Indiana Jones - And the Kingdom of the Crystal Skull (2008) REMUX 4K HDR Latino - CMHDD
    Encoded date                : UTC 2021-06-28 04:52:02
    Writing application         : mkvmerge v56.1.0 ('My Friend') 64-bit
    Writing library             : libebml v1.4.2 + libmatroska v1.6.4
    Cover                       : Yes
    Attachments                 : cover.jpg / CINEMANIAHD.png

    Video #1
    ID                          : 1
    ID in the original source m : 4113 (0x1011)
    Format                      : HEVC
    Format/Info                 : High Efficiency Video Coding
    Format profile              : Main 10@L5.1@High
    HDR format                  : SMPTE ST 2086, HDR10 compatible
    Codec ID                    : V_MPEGH/ISO/HEVC
    Duration                    : 2 h 2 min
    Bit rate                    : 50.3 Mb/s
    Width                       : 3 840 pixels
    Height                      : 2 160 pixels
    Display aspect ratio        : 16:9
    Frame rate mode             : Constant
    Frame rate                  : 23.976 (24000/1001) FPS
    Color space                 : YUV
    Chroma subsampling          : 4:2:0 (Type 2)
    Bit depth                   : 10 bits
    Bits/(Pixel*Frame)          : 0.253
    Stream size                 : 43.1 GiB (84%)
    Default                     : Yes
    Forced                      : No
    Color range                 : Limited
    Color primaries             : BT.2020
    Transfer characteristics    : PQ
    Matrix coefficients         : BT.2020 non-constant
    Mastering display color pri : Display P3
    Mastering display luminance : min: 0.0050 cd/m2, max: 4000 cd/m2
    Maximum Content Light Level : 1000 cd/m2
    Maximum Frame-Average Light : 265 cd/m2
    Original source medium      : Blu-ray

    Video #2
    ID                          : 2
    ID in the original source m : 4117 (0x1015)
    Format                      : HEVC
    Format/Info                 : High Efficiency Video Coding
    Format profile              : Main 10@L5.1@High
    HDR format                  : SMPTE ST 2086, HDR10 compatible
    Codec ID                    : V_MPEGH/ISO/HEVC
    Duration                    : 2 h 2 min
    Bit rate                    : 3 718 kb/s
    Width                       : 1 920 pixels
    Height                      : 1 080 pixels
    Display aspect ratio        : 16:9
    Frame rate mode             : Constant
    Frame rate                  : 23.976 (24000/1001) FPS
    Color space                 : YUV
    Chroma subsampling          : 4:2:0 (Type 2)
    Bit depth                   : 10 bits
    Bits/(Pixel*Frame)          : 0.075
    Stream size                 : 3.18 GiB (6%)
    Default                     : No
    Forced                      : No
    Color range                 : Limited
    Color primaries             : BT.2020
    Transfer characteristics    : PQ
    Matrix coefficients         : BT.2020 non-constant
    Mastering display color pri : Display P3
    Mastering display luminance : min: 0.0050 cd/m2, max: 4000 cd/m2
    Original source medium      : Blu-ray

    Audio #1
    ID                          : 3
    ID in the original source m : 4352 (0x1100)
    Format                      : MLP FBA 16-ch
    Format/Info                 : Meridian Lossless Packing FBA with 16-channel presentation
    Commercial name             : Dolby TrueHD with Dolby Atmos
    Codec ID                    : A_TRUEHD
    Duration                    : 2 h 2 min
    Bit rate mode               : Variable
    Bit rate                    : 4 083 kb/s
    Maximum bit rate            : 6 465 kb/s
    Channel(s)                  : 8 channels
    Channel layout              : L R C LFE Ls Rs Lb Rb
    Sampling rate               : 48.0 kHz
    Frame rate                  : 1 200.000 FPS (40 SPF)
    Compression mode            : Lossless
    Stream size                 : 3.49 GiB (7%)
    Language                    : English
    Default                     : No
    Forced                      : No
    Original source medium      : Blu-ray
    Number of dynamic objects   : 11
    Bed channel count           : 1 channel
    Bed channel configuration   : LFE

    Audio #2
    ID                          : 4
    ID in the original source m : 4352 (0x1100)
    Format                      : AC-3
    Format/Info                 : Audio Coding 3
    Commercial name             : Dolby Digital
    Codec ID                    : A_AC3
    Duration                    : 2 h 2 min
    Bit rate mode               : Constant
    Bit rate                    : 640 kb/s
    Channel(s)                  : 6 channels
    Channel layout              : L R C LFE Ls Rs
    Sampling rate               : 48.0 kHz
    Frame rate                  : 31.250 FPS (1536 SPF)
    Compression mode            : Lossy
    Stream size                 : 561 MiB (1%)
    Language                    : English
    Service kind                : Complete Main
    Default                     : No
    Forced                      : No
    Original source medium      : Blu-ray

    Audio #3
    ID                          : 5
    Format                      : AC-3
    Format/Info                 : Audio Coding 3
    Commercial name             : Dolby Digital
    Codec ID                    : A_AC3
    Duration                    : 2 h 2 min
    Bit rate mode               : Constant
    Bit rate                    : 640 kb/s
    Channel(s)                  : 6 channels
    Channel layout              : L R C LFE Ls Rs
    Sampling rate               : 48.0 kHz
    Frame rate                  : 31.250 FPS (1536 SPF)
    Compression mode            : Lossy
    Delay relative to video     : 20 ms
    Stream size                 : 561 MiB (1%)
    Title                       : Español Latino [CinemaniaHDD]
    Language                    : Spanish
    Service kind                : Complete Main
    Default                     : Yes
    Forced                      : Yes

    Audio #4
    ID                          : 6
    Format                      : E-AC-3
    Format/Info                 : Enhanced AC-3
    Commercial name             : Dolby Digital Plus
    Codec ID                    : A_EAC3
    Duration                    : 2 h 2 min
    Bit rate mode               : Constant
    Bit rate                    : 640 kb/s
    Channel(s)                  : 6 channels
    Channel layout              : L R C LFE Ls Rs
    Sampling rate               : 48.0 kHz
    Frame rate                  : 31.250 FPS (1536 SPF)
    Compression mode            : Lossy
    Delay relative to video     : 60 ms
    Stream size                 : 561 MiB (1%)
    Title                       : Español Latino DDP [CinemaniaHDD]
    Language                    : Spanish
    Service kind                : Complete Main
    Default                     : No
    Forced                      : No

    Text #1
    ID                          : 7
    Format                      : PGS
    Muxing mode                 : zlib
    Codec ID                    : S_HDMV/PGS
    Codec ID/Info               : Picture based subtitle format used on BDs/HD-DVDs
    Duration                    : 1 h 54 min
    Bit rate                    : 22.6 kb/s
    Count of elements           : 2048
    Stream size                 : 18.6 MiB (0%)
    Title                       : Español-PGS [CinemaniaHDD]
    Language                    : Spanish
    Default                     : No
    Forced                      : No

    Text #2
    ID                          : 8
    Format                      : PGS
    Muxing mode                 : zlib
    Codec ID                    : S_HDMV/PGS
    Codec ID/Info               : Picture based subtitle format used on BDs/HD-DVDs
    Duration                    : 1 h 54 min
    Bit rate                    : 27.3 kb/s
    Count of elements           : 2094
    Stream size                 : 22.5 MiB (0%)
    Title                       : Ingles-PGS [CinemaniaHDD]
    Language                    : English
    Default                     : No
    Forced                      : No

    Text #3
    ID                          : 9
    Format                      : UTF-8
    Codec ID                    : S_TEXT/UTF8
    Codec ID/Info               : UTF-8 Plain Text
    Duration                    : 1 h 51 min
    Bit rate                    : 0 b/s
    Count of elements           : 6
    Stream size                 : 130 Bytes (0%)
    Title                       : Forzados-SRT [CinemaniaHDD]
    Language                    : Spanish
    Default                     : Yes
    Forced                      : Yes

    Text #4
    ID                          : 10
    Format                      : UTF-8
    Codec ID                    : S_TEXT/UTF8
    Codec ID/Info               : UTF-8 Plain Text
    Duration                    : 1 h 54 min
    Bit rate                    : 38 b/s
    Count of elements           : 1025
    Stream size                 : 32.2 KiB (0%)
    Title                       : Español-SRT [CinemaniaHDD]
    Language                    : Spanish
    Default                     : No
    Forced                      : No

    Menu #1
    00:00:00.000                : Chapter 01
    00:07:20.189                : Chapter 02
    00:13:10.206                : Chapter 03
    00:21:42.634                : Chapter 04
    00:27:37.864                : Chapter 05
    00:36:57.215                : Chapter 06
    00:46:33.624                : Chapter 07
    00:55:36.166                : Chapter 08
    01:05:45.232                : Chapter 09
    01:12:06.780                : Chapter 10
    01:21:51.656                : Chapter 11
    01:29:11.763                : Chapter 12
    01:36:03.007                : Chapter 13
    01:44:22.005                : Chapter 14
    01:51:07.952                : Chapter 15
    01:55:53.738                : Chapter 16

    Menu #2
    00:00:00.000                : Nevada, 1957
    00:07:21.483                : The Warehouse
    00:13:11.499                : I Like Ike
    00:21:45.304                : Of Interest To The Bureau
    00:27:39.157                : Mutt Williams
    00:36:58.508                : Nazca, Peru
    00:46:34.917                : Orellana's Resting Place
    00:55:37.459                : Old Friends & Enemies
    01:05:46.526                : A Truth Revealed
    01:12:08.074                : Family Squabble
    01:21:52.950                : Big Damn Ants
    01:29:13.932                : Three Times It Drops
    01:36:04.258                : City Of Gold
    01:44:23.299                : A Hive Mind
    01:51:09.246                : Finding The Real Treasure
    01:55:55.031                : End Credits

  • Peso: 51.5 GiB

Sinopsis

Guerra Fría (1957). Indiana Jones (Harrison Ford) y su amigo Mac (Ray Winstone) acaban de escapar de las garras de unos agentes soviéticos en un remoto aeropuerto. El decano de la Universidad (Jim Broadbent) le confiesa a su amigo el profesor Jones que las últimas misiones de Indy han fracasado y que está a punto de ser despedido. Mientras tanto, Indiana conoce a Mutt (Shia LaBeouf), un joven rebelde que le propone un trato: si le ayuda a resolver un problema personal, él, a cambio, le facilitaría uno de los descubrimientos más espectaculares de la historia: la Calavera de Cristal de Akator, que se encuentra en un lugar remoto del Perú. Pero los agentes soviéticos, dirigidos por la fría y bella Irina Spalko (Cate Blanchett), tienen el mismo objetivo.

 

Audio Español Latino AC3 5.1 BD + EAC3 NF – Ingles TrueHD 5.1 + AC3 5.1 BD

Ficha técnica

  • Titulo original: Indiana Jones and the Kingdom of the Crystal Skull
  • Fecha de lanzamiento: 21-05-2008 (United States of America)
  • Director: Steven Spielberg
  • Género: Acción, Aventura

Video trailer de la película

Enlaces de descarga

Rip de Bluray

Descargar Indiana Jones – And the Kingdom of the Crystal Skull (2008) REMUX 4K HDR Latino – CMHDD


Aportes de DPeliculasHDmega la pass es:dpeliculashdmega.org Aportes de CinemaniaHD la pass es:cinemaniahdd.com
Guardado en : Acción , Aventura

Películas relacionadas

descargar Indiana Jones – And the Kingdom of the Crystal Skull (2008) REMUX 4K HDR Latino – CMHDD 4K HDR 1080p gratis, Indiana Jones – And the Kingdom of the Crystal Skull (2008) REMUX 4K HDR Latino – CMHDD 4K HDR mega 1 link, Indiana Jones – And the Kingdom of the Crystal Skull (2008) REMUX 4K HDR Latino – CMHDD 4K HDR pelicula completa, descargar Indiana Jones – And the Kingdom of the Crystal Skull (2008) REMUX 4K HDR Latino – CMHDD 4K HDR gratis en mega.

Indiana Jones – And the Kingdom of the Crystal Skull (2008) REMUX 4K HDR Latino – CMHDD pelicula full hd, Indiana Jones – And the Kingdom of the Crystal Skull (2008) REMUX 4K HDR Latino – CMHDD mega latino, Indiana Jones – And the Kingdom of the Crystal Skull (2008) REMUX 4K HDR Latino – CMHDD 4k latino, Indiana Jones – And the Kingdom of the Crystal Skull (2008) REMUX 4K HDR Latino – CMHDD pelicula completa, Indiana Jones – And the Kingdom of the Crystal Skull (2008) REMUX 4K HDR Latino – CMHDD descargar gratis, descargar Indiana Jones – And the Kingdom of the Crystal Skull (2008) REMUX 4K HDR Latino – CMHDD pelicula latino, Indiana Jones – And the Kingdom of the Crystal Skull (2008) REMUX 4K HDR Latino – CMHDD 1 link mega, Indiana Jones – And the Kingdom of the Crystal Skull (2008) REMUX 4K HDR Latino – CMHDD 1 link google drive, Indiana Jones – And the Kingdom of the Crystal Skull (2008) REMUX 4K HDR Latino – CMHDD hd 1080p latino.
Comentarios 0