Independence Day Resurgence (2016) Full HD 1080p Latino – CMHDD

55 vistas
1 estrella2 estrellas3 estrellas4 estrellas5 estrellas (Ninguna valoración todavía)
Cargando...

Información de Independence Day Resurgence (2016) Full HD 1080p Latino – CMHDD

Datos de la película

  • Calidad: Full 1080p
  • Audio: Español Latino AC3 5.1 BLURAY - Ingles DTS-HD Master 7.1 BLURAY
  • Subtitulos: Español Latino PGS
  • Resolución: 1920x1080p
  • Formato: MKV
  • Codec: H.264
  • Encoder: Dracarys
  • Mediainfo: Clic para Mostrar Datos Ver
  • Format                      : Matroska
    Format version              : Version 4
    File size                   : 9.53 GiB
    Duration                    : 1 h 59 min
    Overall bit rate mode       : Variable
    Overall bit rate            : 11.4 Mb/s
    Movie name                  : Independence Day Resurgence (2016) Full HD 1080p Latino - CMHDD
    Encoded date                : UTC 2021-05-01 00:44:02
    Writing application         : mkvmerge v56.1.0 ('My Friend') 64-bit
    Writing library             : libebml v1.4.2 + libmatroska v1.6.4
    Cover                       : Yes
    Attachments                 : cover.jpg

    Video
    ID                          : 1
    Format                      : AVC
    Format/Info                 : Advanced Video Codec
    Format profile              : High@L4.1
    Format settings             : CABAC / 4 Ref Frames
    Format settings, CABAC      : Yes
    Format settings, Reference  : 4 frames
    Codec ID                    : V_MPEG4/ISO/AVC
    Duration                    : 1 h 59 min
    Bit rate                    : 5 897 kb/s
    Width                       : 1 920 pixels
    Height                      : 1 080 pixels
    Display aspect ratio        : 16:9
    Frame rate mode             : Constant
    Frame rate                  : 23.976 (24000/1001) FPS
    Color space                 : YUV
    Chroma subsampling          : 4:2:0
    Bit depth                   : 8 bits
    Scan type                   : Progressive
    Bits/(Pixel*Frame)          : 0.119
    Stream size                 : 4.93 GiB (52%)
    Writing library             : x264 core 157 r2935 545de2f
    Encoding settings           : cabac=1 / ref=4 / deblock=1:0:0 / analyse=0x3:0x133 / me=tesa / subme=11 / psy=1 / psy_rd=1.00:0.00 / mixed_ref=1 / me_range=24 / chroma_me=1 / trellis=2 / 8x8dct=1 / cqm=0 / deadzone=21,11 / fast_pskip=0 / chroma_qp_offset=-2 / threads=24 / lookahead_threads=6 / sliced_threads=0 / nr=0 / decimate=1 / interlaced=0 / bluray_compat=0 / constrained_intra=0 / bframes=16 / b_pyramid=2 / b_adapt=2 / b_bias=0 / direct=3 / weightb=1 / open_gop=0 / weightp=2 / keyint=240 / keyint_min=24 / scenecut=40 / intra_refresh=0 / rc_lookahead=60 / rc=crf / mbtree=1 / crf=20.0 / qcomp=0.60 / qpmin=0 / qpmax=69 / qpstep=4 / vbv_maxrate=62500 / vbv_bufsize=78125 / crf_max=0.0 / nal_hrd=none / filler=0 / ip_ratio=1.40 / aq=1:1.00
    Default                     : Yes
    Forced                      : No
    Color range                 : Limited
    Color primaries             : BT.709
    Transfer characteristics    : BT.709
    Matrix coefficients         : BT.709

    Audio #1
    ID                          : 2
    Format                      : AC-3
    Format/Info                 : Audio Coding 3
    Commercial name             : Dolby Digital
    Codec ID                    : A_AC3
    Duration                    : 1 h 59 min
    Bit rate mode               : Constant
    Bit rate                    : 448 kb/s
    Channel(s)                  : 6 channels
    Channel layout              : L R C LFE Ls Rs
    Sampling rate               : 48.0 kHz
    Frame rate                  : 31.250 FPS (1536 SPF)
    Compression mode            : Lossy
    Stream size                 : 384 MiB (4%)
    Language                    : Spanish
    Service kind                : Complete Main
    Default                     : Yes
    Forced                      : No

    Audio #2
    ID                          : 3
    Format                      : DTS ES XLL
    Format/Info                 : Digital Theater Systems
    Commercial name             : DTS-HD Master Audio
    Codec ID                    : A_DTS
    Duration                    : 1 h 59 min
    Bit rate mode               : Variable
    Bit rate                    : 5 023 kb/s
    Channel(s)                  : 8 channels
    Channel layout              : C L R Ls Rs LFE Lb Rb
    Sampling rate               : 48.0 kHz
    Frame rate                  : 93.750 FPS (512 SPF)
    Bit depth                   : 24 bits
    Compression mode            : Lossless
    Stream size                 : 4.20 GiB (44%)
    Language                    : English
    Default                     : No
    Forced                      : No

    Text #1
    ID                          : 4
    Format                      : PGS
    Muxing mode                 : zlib
    Codec ID                    : S_HDMV/PGS
    Codec ID/Info               : Picture based subtitle format used on BDs/HD-DVDs
    Duration                    : 1 h 58 min
    Bit rate                    : 35.4 kb/s
    Count of elements           : 3194
    Stream size                 : 30.1 MiB (0%)
    Language                    : Spanish
    Default                     : No
    Forced                      : No

    Text #2
    ID                          : 5
    Format                      : PGS
    Muxing mode                 : zlib
    Codec ID                    : S_HDMV/PGS
    Codec ID/Info               : Picture based subtitle format used on BDs/HD-DVDs
    Duration                    : 1 h 59 min
    Bit rate                    : 54.0 kb/s
    Count of elements           : 3682
    Stream size                 : 46.1 MiB (0%)
    Language                    : Spanish
    Default                     : No
    Forced                      : No

    Menu
    00:00:00.000                : :Chapter 1
    00:05:37.337                : :Chapter 2
    00:09:15.472                : :Chapter 3
    00:14:06.721                : :Chapter 4
    00:19:40.471                : :Chapter 5
    00:22:59.003                : :Chapter 6
    00:27:10.254                : :Chapter 7
    00:31:37.646                : :Chapter 8
    00:39:11.975                : :Chapter 9
    00:43:41.119                : :Chapter 10
    00:47:46.614                : :Chapter 11
    00:52:32.191                : :Chapter 12
    00:59:10.255                : :Chapter 13
    01:02:00.133                : :Chapter 14
    01:07:12.070                : :Chapter 15
    01:09:54.816                : :Chapter 16
    01:13:11.721                : :Chapter 17
    01:18:27.453                : :Chapter 18
    01:22:45.502                : :Chapter 19
    01:27:51.808                : :Chapter 20
    01:32:36.718                : :Chapter 21
    01:39:37.638                : :Chapter 22
    01:47:20.142                : :Chapter 23
    01:50:36.171                : :Chapter 24

  • Peso: 9.53 GiB

Sinopsis

Utilizando la tecnología que los extraterrestres tenían 20 años antes, las naciones de la Tierra, que temen el regreso de los invasores, han colaborado en la elaboración de un gigantesco programa de defensa para proteger el planeta. Pero no es seguro que ese programa sirva para hacer frente a los avanzados e inauditos recursos de los atacantes. Quizá sólo la inventiva de unos pocos valientes pueda evitar la destrucción del mundo, que se encuentra de nuevo al borde de la extinción. Secuela del gran éxito de 1996 «Independence Day».

Ficha técnica

Video trailer de la película

Enlaces de descarga

Rip de Bluray

Descargar Independence Day Resurgence (2016) Full HD 1080p Latino – CMHDD




Aportes de DPeliculasHDmega la pass es:dpeliculashdmega.org Aportes de CinemaniaHD la pass es:cinemaniahdd.com
Guardado en : Acción , Aventura , Ciencia ficción

Películas relacionadas

  • Nadie (2021) REMUX 1080p Latino

    Nadie (2021) REMUX 1080p Latino

    2021
    Nadie (2021) REMUX 1080p Latino

    5.0 1h 32m 2021

    Descargar Nadie (2021) REMUX 1080p Latino. Hutch Mansell, un padre de familia que aguanta con resignación...

    Director: Ilya Naishuller

    Género: Acción

    Actores: Yulia Guzhva

  • Godzilla vs Kong (2021) REMUX 4K HDR Latino – CMHDD

    Godzilla vs Kong (2021) REMUX 4K HDR Latino – CMHDD

    2021
    Godzilla vs Kong (2021) REMUX 4K HDR Latino – CMHDD

    5.0 1h 53m 2021

    Godzilla y Kong, dos de las fuerzas más poderosas de un planeta habitado por todo tipo de aterradoras...

    Director: Thomas Robinson Harper

    Género: Acción

    Actores: Victoria Liu

Independence Day Resurgence (2016) Full HD 1080p Latino – CMHDD pelicula full hd, Independence Day Resurgence (2016) Full HD 1080p Latino – CMHDD mega latino, Independence Day Resurgence (2016) Full HD 1080p Latino – CMHDD 4k latino, Independence Day Resurgence (2016) Full HD 1080p Latino – CMHDD pelicula completa, Independence Day Resurgence (2016) Full HD 1080p Latino – CMHDD descargar gratis, descargar Independence Day Resurgence (2016) Full HD 1080p Latino – CMHDD pelicula latino, Independence Day Resurgence (2016) Full HD 1080p Latino – CMHDD 1 link mega, Independence Day Resurgence (2016) Full HD 1080p Latino – CMHDD 1 link google drive, Independence Day Resurgence (2016) Full HD 1080p Latino – CMHDD hd 1080p latino.
Comentarios 0