×

¿Problemas para descargar con Mozilla, EDGE? Deshabilita la opción "Abrir vinculos en una pestaña nueva" tal como lo muestra ésta imagen.

El Día de la Independencia (1996) EXTENDED REMUX 1080p Latino

346 vistas

Información de El Día de la Independencia (1996) EXTENDED REMUX 1080p Latino

Datos de la película

  • Calidad: Full 1080p
  • Audio: Español Latino AC3 5.1 BLURAY - Ingles DTS 5.1 BLURAY
  • Subtitulos: Español Latino PGS - Ingles PGS
  • Resolución: 1920x1080p
  • Formato: MKV
  • Codec: H.264
  • Encoder: CinefiloCool
  • Mediainfo: Clic para Mostrar Datos Ver
  • Dia De La Independencia (1996) EXTENDED REMUX 1080p Latino-CMHDD.mkv
    Format                      : Matroska
    Format version              : Version 4
    File size                   : 30.5 GiB
    Duration                    : 2 h 33 min
    Overall bit rate mode       : Variable
    Overall bit rate            : 28.4 Mb/s
    Movie name                  : Independence Day (1996) CinemaniaHDD.Net
    Encoded date                : UTC 2022-03-15 04:35:29
    Writing application         : mkvmerge v56.1.0 ('My Friend') 64-bit
    Writing library             : libebml v1.4.2 + libmatroska v1.6.4
    Attachments                 : CINEMANIAHD.png

    Video
    ID                          : 1
    Format                      : AVC
    Format/Info                 : Advanced Video Codec
    Format profile              : High@L4.1
    Format settings             : CABAC / 2 Ref Frames
    Format settings, CABAC      : Yes
    Format settings, Reference  : 2 frames
    Codec ID                    : V_MPEG4/ISO/AVC
    Duration                    : 2 h 33 min
    Bit rate mode               : Variable
    Bit rate                    : 23.7 Mb/s
    Width                       : 1 920 pixels
    Height                      : 1 080 pixels
    Display aspect ratio        : 16:9
    Frame rate mode             : Constant
    Frame rate                  : 23.976 (24000/1001) FPS
    Color space                 : YUV
    Chroma subsampling          : 4:2:0
    Bit depth                   : 8 bits
    Scan type                   : Progressive
    Bits/(Pixel*Frame)          : 0.476
    Stream size                 : 25.4 GiB (83%)
    Title                       : REMUX HD1080p [CinemaniaHDD]
    Language                    : English
    Default                     : Yes
    Forced                      : Yes

    Audio #1
    ID                          : 2
    Format                      : AC-3
    Format/Info                 : Audio Coding 3
    Commercial name             : Dolby Digital
    Codec ID                    : A_AC3
    Duration                    : 2 h 33 min
    Bit rate mode               : Constant
    Bit rate                    : 448 kb/s
    Channel(s)                  : 6 channels
    Channel layout              : L R C LFE Ls Rs
    Sampling rate               : 48.0 kHz
    Frame rate                  : 31.250 FPS (1536 SPF)
    Compression mode            : Lossy
    Stream size                 : 492 MiB (2%)
    Title                       : Español Latino [CinemaniaHDD]
    Language                    : Spanish
    Service kind                : Complete Main
    Default                     : Yes
    Forced                      : Yes

    Audio #2
    ID                          : 3
    Format                      : DTS XLL
    Format/Info                 : Digital Theater Systems
    Commercial name             : DTS-HD Master Audio
    Codec ID                    : A_DTS
    Duration                    : 2 h 33 min
    Bit rate mode               : Variable
    Bit rate                    : 4 259 kb/s
    Channel(s)                  : 6 channels
    Channel layout              : C L R Ls Rs LFE
    Sampling rate               : 48.0 kHz
    Frame rate                  : 93.750 FPS (512 SPF)
    Bit depth                   : 24 bits
    Compression mode            : Lossless
    Stream size                 : 4.57 GiB (15%)
    Title                       : Ingles [CinemaniaHDD]
    Language                    : English
    Default                     : No
    Forced                      : No

    Text #1
    ID                          : 4
    Format                      : PGS
    Muxing mode                 : zlib
    Codec ID                    : S_HDMV/PGS
    Codec ID/Info               : Picture based subtitle format used on BDs/HD-DVDs
    Duration                    : 2 h 26 min
    Bit rate                    : 3 129 b/s
    Count of elements           : 302
    Stream size                 : 3.28 MiB (0%)
    Title                       : Forzados-PGS [CinemaniaHDD]
    Language                    : Spanish
    Default                     : No
    Forced                      : No

    Text #2
    ID                          : 5
    Format                      : PGS
    Muxing mode                 : zlib
    Codec ID                    : S_HDMV/PGS
    Codec ID/Info               : Picture based subtitle format used on BDs/HD-DVDs
    Duration                    : 2 h 32 min
    Bit rate                    : 33.3 kb/s
    Count of elements           : 3200
    Stream size                 : 36.4 MiB (0%)
    Title                       : Español-PGS [CinemaniaHDD]
    Language                    : Spanish
    Default                     : No
    Forced                      : No

    Text #3
    ID                          : 6
    Format                      : PGS
    Muxing mode                 : zlib
    Codec ID                    : S_HDMV/PGS
    Codec ID/Info               : Picture based subtitle format used on BDs/HD-DVDs
    Duration                    : 2 h 23 min
    Bit rate                    : 35.2 kb/s
    Count of elements           : 3573
    Stream size                 : 36.1 MiB (0%)
    Title                       : Ingles-PGS [CinemaniaHDD]
    Language                    : English
    Default                     : No
    Forced                      : No

    Text #4
    ID                          : 7
    Format                      : UTF-8
    Codec ID                    : S_TEXT/UTF8
    Codec ID/Info               : UTF-8 Plain Text
    Duration                    : 2 h 11 min
    Bit rate                    : 5 b/s
    Count of elements           : 150
    Stream size                 : 5.79 KiB (0%)
    Title                       : Forzados-SRT [CinemaniaHDD]
    Language                    : Spanish
    Default                     : Yes
    Forced                      : Yes

    Text #5
    ID                          : 8
    Format                      : UTF-8
    Codec ID                    : S_TEXT/UTF8
    Codec ID/Info               : UTF-8 Plain Text
    Duration                    : 2 h 23 min
    Bit rate                    : 62 b/s
    Count of elements           : 1637
    Stream size                 : 65.7 KiB (0%)
    Title                       : Español-SRT [CinemaniaHDD]
    Language                    : Spanish
    Default                     : No
    Forced                      : No

    Menu
    00:00:00.000                : Opening Titles/July 2
    00:02:43.872                : Contact
    00:05:01.467                : At the White House
    00:07:32.577                : Approaching Earth
    00:08:02.315                : Chess Game
    00:09:21.602                : Compact Cable Chaos
    00:10:29.879                : Imperial Valley, California
    00:12:06.600                : Deployment/Def Con 3
    00:14:08.514                : A Technical Kiss
    00:14:56.729                : Visual Range
    00:18:56.969                : The Code for Panic
    00:25:33.114                : Wake Up Call
    00:27:23.725                : Countdown to Extinction
    00:30:10.808                : Duty Calls
    00:32:18.102                : Get Out of Town
    00:34:12.633                : Trailer Camp Confrontation
    00:36:39.405                : Fighter Pilots Report
    00:38:17.378                : Strip Club
    00:40:05.110                : Nice Driving
    00:41:02.167                : Look Up the Number
    00:41:33.449                : Attempts to Communicate
    00:44:15.611                : The White House Legacy
    00:44:37.925                : The Clock Is Ticking
    00:46:02.801                : Communication Breakdown
    00:48:48.008                : Panic or Party
    00:50:42.038                : Time's Up
    00:54:22.717                : July 3
    00:57:22.480                : Battle Plans
    00:58:05.148                : First Attack
    01:03:10.995                : Two on Two
    01:04:30.157                : Canyon Chase
    01:06:00.748                : Welcome to Earth
    01:06:52.967                : Desert Rv Caravan
    01:08:20.012                : The Truth Is Out There
    01:11:22.027                : Urban Survivors
    01:12:50.324                : Do You Know the Way to Area 51?
    01:14:38.140                : Area 51
    01:18:29.537                : The Freak Show
    01:21:19.207                : Inside the Alien Attacker
    01:23:04.729                : Arriving with the Alien
    01:25:59.779                : In the Ruins of El Toro
    01:27:49.680                : Alien Surgery
    01:35:25.260                : Nuclear Attack
    01:38:52.217                : Rescue at El Toro
    01:39:55.572                : The First Lady's Death
    01:42:51.790                : July 4
    01:49:33.233                : Worldwide Plans
    01:53:25.339                : A Wedding
    01:55:01.060                : Independence Day
    01:59:38.754                : Using the Alien Attacker
    02:04:03.394                : Into the Mother Ship
    02:07:41.403                : Engage the Enemy
    02:10:50.675                : Adversity Makes Strange Bedfellows
    02:11:52.612                : Time for a Hero
    02:17:21.316                : Execute 'Jolly Roger'
    02:21:17.343                : Victory
    02:24:48.679                : Credits

  • Peso: 30.5 GiB

Sinopsis

Descargar El Día de la Independencia (1996) EXTENDED REMUX 1080p Latino. En víspera del 4 de julio, unas gigantescas naves espaciales aparecen en el cielo. El estupor inicial se convierte en terror al ver cómo éstas atacan al planeta lanzando rayos destructivos en las mayores ciudades de todo el mundo. Ahora la única esperanza para la salvación de la tierra está en la voluntad de algunos supervivientes, que se unen planeando el último ataque masivo contra los alienígenas, antes de que sea demasiado tarde para la humanidad.

Disponible Solo Para VIP!!!

Ficha técnica

Video trailer de la película

Enlaces de descarga

Rip de Bluray

Descargar El Día de la Independencia (1996) EXTENDED REMUX 1080p Latino


Aportes de DPeliculasHDmega la pass es:dpeliculashdmega.org Aportes de CinemaniaHD la pass es:cinemaniahdd.com
Guardado en : Acción , Aventura , Ciencia ficción , Remux

Películas relacionadas

descargar El Día de la Independencia (1996) EXTENDED REMUX 1080p Latino Full 1080p 1080p gratis, El Día de la Independencia (1996) EXTENDED REMUX 1080p Latino Full 1080p mega 1 link, El Día de la Independencia (1996) EXTENDED REMUX 1080p Latino Full 1080p pelicula completa, descargar El Día de la Independencia (1996) EXTENDED REMUX 1080p Latino Full 1080p gratis en mega.

El Día de la Independencia (1996) EXTENDED REMUX 1080p Latino pelicula full hd, El Día de la Independencia (1996) EXTENDED REMUX 1080p Latino mega latino, El Día de la Independencia (1996) EXTENDED REMUX 1080p Latino 4k latino, El Día de la Independencia (1996) EXTENDED REMUX 1080p Latino pelicula completa, El Día de la Independencia (1996) EXTENDED REMUX 1080p Latino descargar gratis, descargar El Día de la Independencia (1996) EXTENDED REMUX 1080p Latino pelicula latino, El Día de la Independencia (1996) EXTENDED REMUX 1080p Latino 1 link mega, El Día de la Independencia (1996) EXTENDED REMUX 1080p Latino 1 link google drive, El Día de la Independencia (1996) EXTENDED REMUX 1080p Latino hd 1080p latino.
Comentarios 0