×

¿Problemas para descargar con Mozilla, EDGE? Deshabilita la opción "Abrir vinculos en una pestaña nueva" tal como lo muestra ésta imagen.

Indecent Proposal (1993) REMUX 4K HDR Latino – CMHDD

89 vistas

Información de Indecent Proposal (1993) REMUX 4K HDR Latino – CMHDD

Datos de la película

  • Calidad: Full 1080p
  • Audio: Español Latino AC3 5.1 BLURAY - Ingles DTS 5.1 BLURAY
  • Subtitulos: Español Latino PGS
  • Resolución: 3840x2160p
  • Formato: MKV
  • Codec: H.264
  • Encoder: Dracarys
  • Mediainfo: Clic para Mostrar Datos Ver
  • Format                      : Matroska
    Format version              : Version 4
    File size                   : 69.5 GiB
    Duration                    : 1 h 56 min
    Overall bit rate mode       : Variable
    Overall bit rate            : 85.1 Mb/s
    Movie name                  : Indecent Proposal (1993) REMUX 4K HDR Latino - CMHDD
    Encoded date                : UTC 2024-01-16 20:21:56
    Writing application         : mkvmerge v47.0.0 ('Black Flag') 64-bit
    Writing library             : libebml v1.3.10 + libmatroska v1.5.2

    Video
    ID                          : 1
    ID in the original source m : 4113 (0x1011)
    Format                      : HEVC
    Format/Info                 : High Efficiency Video Coding
    Format profile              : Main 10@L5.1@High
    HDR format                  : SMPTE ST 2086, HDR10 compatible
    Codec ID                    : V_MPEGH/ISO/HEVC
    Duration                    : 1 h 56 min
    Bit rate                    : 80.7 Mb/s
    Width                       : 3 840 pixels
    Height                      : 2 160 pixels
    Display aspect ratio        : 16:9
    Frame rate mode             : Constant
    Frame rate                  : 23.976 (24000/1001) FPS
    Color space                 : YUV
    Chroma subsampling          : 4:2:0 (Type 2)
    Bit depth                   : 10 bits
    Bits/(Pixel*Frame)          : 0.406
    Stream size                 : 65.9 GiB (95%)
    Language                    : English
    Default                     : Yes
    Forced                      : No
    Color range                 : Limited
    Color primaries             : BT.2020
    Transfer characteristics    : PQ
    Matrix coefficients         : BT.2020 non-constant
    Mastering display color pri : Display P3
    Mastering display luminance : min: 0.0050 cd/m2, max: 4000 cd/m2
    Original source medium      : Blu-ray

    Audio #1
    ID                          : 2
    Format                      : AC-3
    Format/Info                 : Audio Coding 3
    Commercial name             : Dolby Digital
    Codec ID                    : A_AC3
    Duration                    : 1 h 56 min
    Bit rate mode               : Constant
    Bit rate                    : 640 kb/s
    Channel(s)                  : 6 channels
    Channel layout              : L R C LFE Ls Rs
    Sampling rate               : 48.0 kHz
    Frame rate                  : 31.250 FPS (1536 SPF)
    Compression mode            : Lossy
    Delay relative to video     : 28 ms
    Stream size                 : 535 MiB (1%)
    Language                    : Spanish
    Service kind                : Complete Main
    Default                     : Yes
    Forced                      : Yes

    Audio #2
    ID                          : 3
    Format                      : DTS XLL
    Format/Info                 : Digital Theater Systems
    Commercial name             : DTS-HD Master Audio
    Codec ID                    : A_DTS
    Duration                    : 1 h 56 min
    Bit rate mode               : Variable
    Bit rate                    : 3 727 kb/s
    Channel(s)                  : 6 channels
    Channel layout              : C L R Ls Rs LFE
    Sampling rate               : 48.0 kHz
    Frame rate                  : 93.750 FPS (512 SPF)
    Bit depth                   : 24 bits
    Compression mode            : Lossless
    Stream size                 : 3.04 GiB (4%)
    Language                    : English
    Default                     : No
    Forced                      : No

    Text #1
    ID                          : 4
    Format                      : UTF-8
    Codec ID                    : S_TEXT/UTF8
    Codec ID/Info               : UTF-8 Plain Text
    Duration                    : 1 h 50 min
    Bit rate                    : 36 b/s
    Frame rate                  : 0.139 FPS
    Count of elements           : 920
    Stream size                 : 29.2 KiB (0%)
    Language                    : Spanish
    Default                     : No
    Forced                      : No

    Text #2
    ID                          : 5
    Format                      : PGS
    Muxing mode                 : zlib
    Codec ID                    : S_HDMV/PGS
    Codec ID/Info               : Picture based subtitle format used on BDs/HD-DVDs
    Duration                    : 1 h 50 min
    Bit rate                    : 24.5 kb/s
    Frame rate                  : 0.325 FPS
    Count of elements           : 2154
    Stream size                 : 19.4 MiB (0%)
    Language                    : Spanish
    Default                     : No
    Forced                      : No

    Menu
    00:00:00.000                : en:Chapter 01
    00:11:14.424                : en:Chapter 02
    00:22:17.378                : en:Chapter 03
    00:31:24.424                : en:Chapter 04
    00:41:55.680                : en:Chapter 05
    00:50:54.760                : en:Chapter 06
    01:00:17.113                : en:Chapter 07
    01:13:52.136                : en:Chapter 08
    01:25:01.763                : en:Chapter 09
    01:35:10.580                : en:Chapter 10
    01:44:39.523                : en:Chapter 11

     

  • Peso: 69.5 GiB

Sinopsis

David (Harrelson), arquitecto, y Diona Murphy (Moore), agente inmobiliario, son un matrimonio felizmente casado y bien avenido que, por culpa de un traspié económico, ve peligrar su nivel de vida. En Las Vegas, donde buscan un golpe de suerte en el juego que les traiga algo de dinero, un maduro y apuesto multimillonario (Redford) ofrece a David un millón de dólares a cambio de pasar una noche con su mujer. A pesar de las dudas iniciales, ambos acaban aceptando la propuesta…

Ficha técnica

Video trailer de la película

Enlaces de descarga

Rip de Bluray

Descargar Indecent Proposal (1993) REMUX 4K HDR Latino – CMHDD




Aportes de DPeliculasHDmega la pass es:dpeliculashdmega.org Aportes de CinemaniaHD la pass es:cinemaniahdd.com Aportes recientes:cinemaniahdd.net
Guardado en : Drama , Romance

Películas relacionadas

descargar Indecent Proposal (1993) REMUX 4K HDR Latino – CMHDD Full 1080p 1080p gratis, Indecent Proposal (1993) REMUX 4K HDR Latino – CMHDD Full 1080p mega 1 link, Indecent Proposal (1993) REMUX 4K HDR Latino – CMHDD Full 1080p pelicula completa, descargar Indecent Proposal (1993) REMUX 4K HDR Latino – CMHDD Full 1080p gratis en mega.

Indecent Proposal (1993) REMUX 4K HDR Latino – CMHDD pelicula full hd, Indecent Proposal (1993) REMUX 4K HDR Latino – CMHDD mega latino, Indecent Proposal (1993) REMUX 4K HDR Latino – CMHDD 4k latino, Indecent Proposal (1993) REMUX 4K HDR Latino – CMHDD pelicula completa, Indecent Proposal (1993) REMUX 4K HDR Latino – CMHDD descargar gratis, descargar Indecent Proposal (1993) REMUX 4K HDR Latino – CMHDD pelicula latino, Indecent Proposal (1993) REMUX 4K HDR Latino – CMHDD 1 link mega, Indecent Proposal (1993) REMUX 4K HDR Latino – CMHDD 1 link google drive, Indecent Proposal (1993) REMUX 4K HDR Latino – CMHDD hd 1080p latino.
Comentarios 0