×

¿Problemas para descargar con Mozilla, EDGE? Deshabilita la opción "Abrir vinculos en una pestaña nueva" tal como lo muestra ésta imagen.

In Your Dreams (2023) AMZN WEB-DL 1080p Latino

295 vistas

Información de In Your Dreams (2023) AMZN WEB-DL 1080p Latino

Datos de la película

  • Calidad: 1080p
  • Audio: Español Latino AC3 5.1 WEB-DL - Ingles AC3 5.1 WEB-DL
  • Subtitulos: Español Latino SRT- FORZADOS SRT
  • Resolución: 1920x1080
  • Formato: MKV
  • Codec: H.264
  • Encoder: cinemaniahdd
  • Mediainfo: Clic para Mostrar Datos Ver
  • In Your Dreams (2023) AMZN WEB-DL 1080p Latino [CNMNHDD].mkv
    Format                      : Matroska
    Format version              : Version 4
    File size                   : 6.74 GiB
    Duration                    : 1 h 31 min
    Overall bit rate            : 10.5 Mb/s
    Movie name                  : In Your Dreams (2023) [1080p] - CinemaniaHDD.Net
    Encoded date                : UTC 2023-04-18 00:46:50
    Writing application         : mkvmerge v56.1.0 ('My Friend') 64-bit
    Writing library             : libebml v1.4.2 + libmatroska v1.6.4

    Video
    ID                          : 1
    Format                      : AVC
    Format/Info                 : Advanced Video Codec
    Format profile              : High@L4
    Format settings             : CABAC / 4 Ref Frames
    Format settings, CABAC      : Yes
    Format settings, Reference  : 4 frames
    Codec ID                    : V_MPEG4/ISO/AVC
    Duration                    : 1 h 31 min
    Bit rate mode               : Constant
    Bit rate                    : 8 614 kb/s
    Nominal bit rate            : 10 000 kb/s
    Width                       : 1 920 pixels
    Height                      : 1 080 pixels
    Display aspect ratio        : 16:9
    Frame rate mode             : Constant
    Frame rate                  : 24.000 FPS
    Color space                 : YUV
    Chroma subsampling          : 4:2:0
    Bit depth                   : 8 bits
    Scan type                   : Progressive
    Bits/(Pixel*Frame)          : 0.173
    Stream size                 : 5.51 GiB (82%)
    Title                       : CinemaniaHDD
    Default                     : Yes
    Forced                      : No
    Color range                 : Limited
    Color primaries             : BT.709
    Transfer characteristics    : BT.709
    Matrix coefficients         : BT.709

    Audio #1
    ID                          : 2
    Format                      : AC-3
    Format/Info                 : Audio Coding 3
    Commercial name             : Dolby Digital
    Codec ID                    : A_AC3
    Duration                    : 1 h 31 min
    Bit rate mode               : Constant
    Bit rate                    : 640 kb/s
    Channel(s)                  : 6 channels
    Channel layout              : L R C LFE Ls Rs
    Sampling rate               : 48.0 kHz
    Frame rate                  : 31.250 FPS (1536 SPF)
    Compression mode            : Lossy
    Stream size                 : 419 MiB (6%)
    Title                       : Español latino [CinemaniaHDD]
    Language                    : Spanish
    Service kind                : Complete Main
    Default                     : Yes
    Forced                      : No

    Audio #2
    ID                          : 3
    Format                      : E-AC-3
    Format/Info                 : Enhanced AC-3
    Commercial name             : Dolby Digital Plus
    Codec ID                    : A_EAC3
    Duration                    : 1 h 31 min
    Bit rate mode               : Constant
    Bit rate                    : 640 kb/s
    Channel(s)                  : 6 channels
    Channel layout              : L R C LFE Ls Rs
    Sampling rate               : 48.0 kHz
    Frame rate                  : 31.250 FPS (1536 SPF)
    Compression mode            : Lossy
    Stream size                 : 419 MiB (6%)
    Title                       : Español latino / E-AC3 [CinemaniaHDD]
    Language                    : Spanish
    Service kind                : Complete Main
    Default                     : No
    Forced                      : No

    Audio #3
    ID                          : 4
    Format                      : E-AC-3
    Format/Info                 : Enhanced AC-3
    Commercial name             : Dolby Digital Plus
    Codec ID                    : A_EAC3
    Duration                    : 1 h 31 min
    Bit rate mode               : Constant
    Bit rate                    : 640 kb/s
    Channel(s)                  : 6 channels
    Channel layout              : L R C LFE Ls Rs
    Sampling rate               : 48.0 kHz
    Frame rate                  : 31.250 FPS (1536 SPF)
    Compression mode            : Lossy
    Stream size                 : 419 MiB (6%)
    Title                       : Inglés [CinemaniaHDD]
    Language                    : English
    Service kind                : Complete Main
    Default                     : No
    Forced                      : No

    Text #1
    ID                          : 5
    Format                      : UTF-8
    Codec ID                    : S_TEXT/UTF8
    Codec ID/Info               : UTF-8 Plain Text
    Duration                    : 1 h 0 min
    Bit rate                    : 0 b/s
    Count of elements           : 7
    Stream size                 : 125 Bytes (0%)
    Title                       : Forzados [CinemaniaHDD]
    Language                    : Spanish
    Default                     : Yes
    Forced                      : Yes

    Text #2
    ID                          : 6
    Format                      : UTF-8
    Codec ID                    : S_TEXT/UTF8
    Codec ID/Info               : UTF-8 Plain Text
    Duration                    : 1 h 26 min
    Bit rate                    : 64 b/s
    Count of elements           : 1317
    Stream size                 : 40.9 KiB (0%)
    Title                       : Español latino [CinemaniaHDD]
    Language                    : Spanish
    Default                     : No
    Forced                      : No

    Text #3
    ID                          : 7
    Format                      : UTF-8
    Codec ID                    : S_TEXT/UTF8
    Codec ID/Info               : UTF-8 Plain Text
    Duration                    : 1 h 30 min
    Bit rate                    : 57 b/s
    Count of elements           : 1075
    Stream size                 : 37.8 KiB (0%)
    Title                       : Inglés [CinemaniaHDD]
    Language                    : English
    Default                     : No
    Forced                      : No

     

  • Peso: 6.74 GiB

Sinopsis

Ya conoces esa sensación. Parece que el tiempo se ralentizara cuando cruzas una mirada con alguien que no conoces. Después, pasas de largo sin mirar atrás. Eso les pasó a Pelin y Engin. Pero, luego, al abrir los ojos, estaban en la misma cama. Y mejor prepárate para esto: ¡como una pareja casada hace dos años! Debe ser un sueño. No, una pesadilla. Ahora, para despertar, primero deben enamorarse.

Ficha técnica

  • Titulo original: Rüyanda Görürsün
  • Fecha de lanzamiento: 03-02-2023 (Turkey)
  • Director: Cemal Alpan
  • Género: Romance

Video trailer de la película

Enlaces de descarga

Rip de Bluray

Descargar In Your Dreams (2023) AMZN WEB-DL 1080p Latino




Aportes de DPeliculasHDmega la pass es:dpeliculashdmega.org Aportes de CinemaniaHD la pass es:cinemaniahdd.com Aportes recientes:cinemaniahdd.net
Guardado en : Romance

Películas relacionadas

  • Cómplices del engaño (2024) HD 1080p Latino

    Cómplices del engaño (2024) HD 1080p Latino

    2024
    Cómplices del engaño (2024) HD 1080p Latino

    1h 56m 2024

    Descargar Cómplices del engaño (2024) HD 1080p Latino. Gary Johnson es el asesino profesional más...

    Director: T.J. Larson

    Género: Comedia

    Actores: Tre Styles

  • Cómplices del engaño (2024) REMUX 1080p Latino

    Cómplices del engaño (2024) REMUX 1080p Latino

    2024
    Cómplices del engaño (2024) REMUX 1080p Latino

    1h 56m 2024

    Descargar Cómplices del engaño (2024) REMUX 1080p Latino. Gary Johnson es el asesino profesional más...

    Director: T.J. Larson

    Género: Comedia

    Actores: Tre Styles

  • Yesterday (2019) REMUX 4K HDR Latino – CMHDD

    Yesterday (2019) REMUX 4K HDR Latino – CMHDD

    2019
    Yesterday (2019) REMUX 4K HDR Latino – CMHDD

    2h 5m 2019

    Ayer todo el mundo conocía a Los Beatles. Hoy Jack es el único que recuerda sus canciones. Este músico...

    Director: Zoe Morgan

    Género: Comedia

    Actores: Vincent Franklin

  • Desafiantes (2024) Full HD 1080p Latino-CMHDD

    Desafiantes (2024) Full HD 1080p Latino-CMHDD

    2024
    Desafiantes (2024) Full HD 1080p Latino-CMHDD

    2h 12m 2024

    Descargar Desafiantes (2024) Full HD 1080p Latino-CMHDD. Casada con un campeón con una mala racha de...

    Director: Valentina de Amicis

    Género: Drama

    Actores: Zendaya

descargar In Your Dreams (2023) AMZN WEB-DL 1080p Latino 1080p 1080p gratis, In Your Dreams (2023) AMZN WEB-DL 1080p Latino 1080p mega 1 link, In Your Dreams (2023) AMZN WEB-DL 1080p Latino 1080p pelicula completa, descargar In Your Dreams (2023) AMZN WEB-DL 1080p Latino 1080p gratis en mega.

In Your Dreams (2023) AMZN WEB-DL 1080p Latino pelicula full hd, In Your Dreams (2023) AMZN WEB-DL 1080p Latino mega latino, In Your Dreams (2023) AMZN WEB-DL 1080p Latino 4k latino, In Your Dreams (2023) AMZN WEB-DL 1080p Latino pelicula completa, In Your Dreams (2023) AMZN WEB-DL 1080p Latino descargar gratis, descargar In Your Dreams (2023) AMZN WEB-DL 1080p Latino pelicula latino, In Your Dreams (2023) AMZN WEB-DL 1080p Latino 1 link mega, In Your Dreams (2023) AMZN WEB-DL 1080p Latino 1 link google drive, In Your Dreams (2023) AMZN WEB-DL 1080p Latino hd 1080p latino.
Comentarios 0