×

¿Problemas para descargar con Mozilla, EDGE? Deshabilita la opción "Abrir vinculos en una pestaña nueva" tal como lo muestra ésta imagen.

In Vino (2019) Web-DL 1080p Latino

866 vistas

Información de In Vino (2019) Web-DL 1080p Latino

Datos de la película

  • Calidad: WEBDL
  • Audio: Español Latino AC3 5.1 iTunes - Ingles AC3 5.1 iTunes
  • Subtitulos: Español Latino SRT
  • Resolución: 1908x796p
  • Formato: MKV
  • Codec: H.264
  • Encoder: CinemaniaHD
  • Mediainfo: Clic para Mostrar Datos Ver
  • In Vino (2019) Web-DL 1080p Latino-CMHDD.mkv
    Format                      : Matroska
    Format version              : Version 4
    File size                   : 3.49 GiB
    Duration                    : 1 h 33 min
    Overall bit rate            : 5 365 kb/s
    Movie name                  : In Vino (2019) CinemaniaHDD.Net
    Encoded date                : UTC 2020-03-27 02:55:35
    Writing application         : mkvmerge v42.0.0 ('Overtime') 64-bit
    Writing library             : libebml v1.3.10 + libmatroska v1.5.2
    Attachments                 : CINEMANIAHD.png

    Video
    ID                          : 1
    Format                      : AVC
    Format/Info                 : Advanced Video Codec
    Format profile              : High@L4
    Format settings             : CABAC / 5 Ref Frames
    Format settings, CABAC      : Yes
    Format settings, ReFrames   : 5 frames
    Codec ID                    : V_MPEG4/ISO/AVC
    Duration                    : 1 h 33 min
    Bit rate                    : 4 595 kb/s
    Width                       : 1 908 pixels
    Height                      : 796 pixels
    Display aspect ratio        : 2.40:1
    Frame rate mode             : Constant
    Frame rate                  : 23.976 (24000/1001) FPS
    Color space                 : YUV
    Chroma subsampling          : 4:2:0
    Bit depth                   : 8 bits
    Scan type                   : Progressive
    Bits/(Pixel*Frame)          : 0.126
    Stream size                 : 2.99 GiB (86%)
    Title                       : HD1080p [Web]
    Default                     : Yes
    Forced                      : Yes
    Color range                 : Limited
    Color primaries             : BT.709
    Transfer characteristics    : BT.709
    Matrix coefficients         : BT.709

    Audio #1
    ID                          : 2
    Format                      : AC-3
    Format/Info                 : Audio Coding 3
    Commercial name             : Dolby Digital
    Codec ID                    : A_AC3
    Duration                    : 1 h 33 min
    Bit rate mode               : Constant
    Bit rate                    : 384 kb/s
    Channel(s)                  : 6 channels
    Channel layout              : L R C LFE Ls Rs
    Sampling rate               : 48.0 kHz
    Frame rate                  : 31.250 FPS (1536 SPF)
    Bit depth                   : 16 bits
    Compression mode            : Lossy
    Delay relative to video     : -42 ms
    Stream size                 : 256 MiB (7%)
    Title                       : AC3_5.1_Web_Esp
    Language                    : Spanish
    Service kind                : Complete Main
    Default                     : Yes
    Forced                      : Yes

    Audio #2
    ID                          : 3
    Format                      : AC-3
    Format/Info                 : Audio Coding 3
    Commercial name             : Dolby Digital
    Codec ID                    : A_AC3
    Duration                    : 1 h 33 min
    Bit rate mode               : Constant
    Bit rate                    : 384 kb/s
    Channel(s)                  : 6 channels
    Channel layout              : L R C LFE Ls Rs
    Sampling rate               : 48.0 kHz
    Frame rate                  : 31.250 FPS (1536 SPF)
    Bit depth                   : 16 bits
    Compression mode            : Lossy
    Delay relative to video     : -42 ms
    Stream size                 : 256 MiB (7%)
    Title                       : AC3_5.1_Web_Eng
    Language                    : English
    Service kind                : Complete Main
    Default                     : No
    Forced                      : No

    Text
    ID                          : 4
    Format                      : UTF-8
    Codec ID                    : S_TEXT/UTF8
    Codec ID/Info               : UTF-8 Plain Text
    Duration                    : 1 h 25 min
    Bit rate                    : 67 b/s
    Count of elements           : 1553
    Stream size                 : 42.3 KiB (0%)
    Title                       : Sub_Esp
    Language                    : Spanish
    Default                     : No
    Forced                      : No

    Menu
    00:00:00.000                : en:1
    00:08:52.000                : en:2
    00:18:36.000                : en:3
    00:28:08.000                : en:4
    00:38:18.000                : en:5
    00:47:04.000                : en:6
    00:57:08.000                : en:7
    01:10:58.000                : en:8
    01:18:00.000                : en:9
    01:30:36.000                : en:10

  • Peso: 3.49 GiB

Sinopsis

Descargar In Vino (2019) Web-DL 1080p Latino. Es una noche especial para la familia Buoitton. Charles y Linda, una pareja extremadamente rica, invitan a sus amigos y familiares más cercanos a cenar. Antes de servir la cena, Charles levanta el vaso para brindar por su familia y cae de bruces sobre su plato. Linda confiesa que lo había envenenado y que había envenenado a todos en la habitación para obtener el dinero. Los invitados tienen una opción: matar a una persona entre ellos y echarle la culpa de ambos asesinatos para obtener el antídoto o – MORIR en una hora. Lo que sigue es un intercambio histérico entre los miembros demasiado estresados ​​del grupo que, en un intento por establecer quién debe morir y quién debe ser el asesino, revelan todos los esqueletos en el armario que se han estado ocultando durante años.

Ficha técnica

Video trailer de la película

Enlaces de descarga

Rip de Bluray

Descargar In Vino (2019) Web-DL 1080p Latino




Aportes de DPeliculasHDmega la pass es:dpeliculashdmega.org Aportes de CinemaniaHD la pass es:cinemaniahdd.com
Guardado en : Comedia , Crimen , Sin categoría , Thriller

Películas relacionadas

descargar In Vino (2019) Web-DL 1080p Latino WEBDL 1080p gratis, In Vino (2019) Web-DL 1080p Latino WEBDL mega 1 link, In Vino (2019) Web-DL 1080p Latino WEBDL pelicula completa, descargar In Vino (2019) Web-DL 1080p Latino WEBDL gratis en mega.

In Vino (2019) Web-DL 1080p Latino pelicula full hd, In Vino (2019) Web-DL 1080p Latino mega latino, In Vino (2019) Web-DL 1080p Latino 4k latino, In Vino (2019) Web-DL 1080p Latino pelicula completa, In Vino (2019) Web-DL 1080p Latino descargar gratis, descargar In Vino (2019) Web-DL 1080p Latino pelicula latino, In Vino (2019) Web-DL 1080p Latino 1 link mega, In Vino (2019) Web-DL 1080p Latino 1 link google drive, In Vino (2019) Web-DL 1080p Latino hd 1080p latino.
Comentarios 0