×

¿Problemas para descargar con Mozilla, EDGE? Deshabilita la opción "Abrir vinculos en una pestaña nueva" tal como lo muestra ésta imagen.

In Time (2011) REMUX 1080p Latino – CMHDD

35 vistas

Información de In Time (2011) REMUX 1080p Latino – CMHDD

Datos de la película

  • Calidad: Full 1080p
  • Audio: Español Latino AC3 5.1 BLURAY - Ingles DTS 5.1 BLURAY
  • Subtitulos: Español Latino SRT- FORZADOS SRT
  • Resolución: 19201080p
  • Formato: MKV
  • Codec: H.264
  • Encoder: Dracarys
  • Mediainfo: Clic para Mostrar Datos Ver
  • Format                      : Matroska
    Format version              : Version 4
    File size                   : 27.1 GiB
    Duration                    : 1 h 49 min
    Overall bit rate mode       : Variable
    Overall bit rate            : 35.5 Mb/s
    Movie name                  : In Time (2011) REMUX 1080p Latino - CMHDD
    Encoded date                : UTC 2024-03-17 20:12:47
    Writing application         : mkvmerge v47.0.0 ('Black Flag') 64-bit
    Writing library             : libebml v1.3.10 + libmatroska v1.5.2

    Video
    ID                          : 1
    Format                      : AVC
    Format/Info                 : Advanced Video Codec
    Format profile              : High@L4.1
    Format settings             : CABAC / 4 Ref Frames
    Format settings, CABAC      : Yes
    Format settings, Reference  : 4 frames
    Codec ID                    : V_MPEG4/ISO/AVC
    Duration                    : 1 h 49 min
    Bit rate mode               : Variable
    Bit rate                    : 30.9 Mb/s
    Maximum bit rate            : 32.5 Mb/s
    Width                       : 1 920 pixels
    Height                      : 1 080 pixels
    Display aspect ratio        : 16:9
    Frame rate mode             : Constant
    Frame rate                  : 23.976 (24000/1001) FPS
    Color space                 : YUV
    Chroma subsampling          : 4:2:0
    Bit depth                   : 8 bits
    Scan type                   : Progressive
    Bits/(Pixel*Frame)          : 0.621
    Stream size                 : 23.6 GiB (87%)
    Default                     : Yes
    Forced                      : No

    Audio #1
    ID                          : 2
    Format                      : AC-3
    Format/Info                 : Audio Coding 3
    Commercial name             : Dolby Digital
    Codec ID                    : A_AC3
    Duration                    : 1 h 49 min
    Bit rate mode               : Constant
    Bit rate                    : 384 kb/s
    Channel(s)                  : 6 channels
    Channel layout              : L R C LFE Ls Rs
    Sampling rate               : 48.0 kHz
    Frame rate                  : 31.250 FPS (1536 SPF)
    Compression mode            : Lossy
    Stream size                 : 300 MiB (1%)
    Language                    : Spanish
    Service kind                : Complete Main
    Default                     : Yes
    Forced                      : No

    Audio #2
    ID                          : 3
    Format                      : DTS XLL
    Format/Info                 : Digital Theater Systems
    Commercial name             : DTS-HD Master Audio
    Codec ID                    : A_DTS
    Duration                    : 1 h 49 min
    Bit rate mode               : Variable
    Bit rate                    : 3 815 kb/s
    Channel(s)                  : 6 channels
    Channel layout              : C L R Ls Rs LFE
    Sampling rate               : 48.0 kHz
    Frame rate                  : 93.750 FPS (512 SPF)
    Bit depth                   : 24 bits
    Compression mode            : Lossless
    Stream size                 : 2.91 GiB (11%)
    Language                    : English
    Default                     : No
    Forced                      : No

    Audio #3
    ID                          : 4
    Format                      : AC-3
    Format/Info                 : Audio Coding 3
    Commercial name             : Dolby Digital
    Codec ID                    : A_AC3
    Duration                    : 1 h 49 min
    Bit rate mode               : Constant
    Bit rate                    : 384 kb/s
    Channel(s)                  : 6 channels
    Channel layout              : L R C LFE Ls Rs
    Sampling rate               : 48.0 kHz
    Frame rate                  : 31.250 FPS (1536 SPF)
    Compression mode            : Lossy
    Stream size                 : 300 MiB (1%)
    Language                    : English
    Service kind                : Complete Main
    Default                     : No
    Forced                      : No

    Text #1
    ID                          : 5
    Format                      : UTF-8
    Codec ID                    : S_TEXT/UTF8
    Codec ID/Info               : UTF-8 Plain Text
    Duration                    : 1 h 18 min
    Bit rate                    : 0 b/s
    Frame rate                  : 0.001 FPS
    Count of elements           : 6
    Stream size                 : 121 Bytes (0%)
    Title                       : Forzado
    Language                    : Spanish
    Default                     : Yes
    Forced                      : Yes

    Text #2
    ID                          : 6
    Format                      : UTF-8
    Codec ID                    : S_TEXT/UTF8
    Codec ID/Info               : UTF-8 Plain Text
    Duration                    : 1 h 41 min
    Bit rate                    : 43 b/s
    Frame rate                  : 0.170 FPS
    Count of elements           : 1040
    Stream size                 : 32.3 KiB (0%)
    Language                    : Spanish
    Default                     : No
    Forced                      : No

    Text #3
    ID                          : 7
    Format                      : PGS
    Muxing mode                 : zlib
    Codec ID                    : S_HDMV/PGS
    Codec ID/Info               : Picture based subtitle format used on BDs/HD-DVDs
    Duration                    : 1 h 48 min
    Bit rate                    : 25.1 kb/s
    Frame rate                  : 0.320 FPS
    Count of elements           : 2080
    Stream size                 : 19.4 MiB (0%)
    Language                    : Spanish
    Default                     : No
    Forced                      : No

    Menu
    00:00:00.000                : Chapter 01
    00:05:54.271                : Chapter 02
    00:10:50.733                : Chapter 03
    00:18:58.095                : Chapter 04
    00:22:16.377                : Chapter 05
    00:25:30.446                : Chapter 06
    00:29:51.915                : Chapter 07
    00:34:41.746                : Chapter 08
    00:38:24.886                : Chapter 09
    00:41:23.898                : Chapter 10
    00:44:44.724                : Chapter 11
    00:48:08.302                : Chapter 12
    00:51:32.548                : Chapter 13
    00:53:56.150                : Chapter 14
    00:56:16.873                : Chapter 15
    01:00:25.372                : Chapter 16
    01:05:41.146                : Chapter 17
    01:08:57.800                : Chapter 18
    01:11:19.484                : Chapter 19
    01:14:05.107                : Chapter 20
    01:16:48.979                : Chapter 21
    01:20:20.983                : Chapter 22
    01:22:44.293                : Chapter 23
    01:27:17.107                : Chapter 24
    01:29:22.399                : Chapter 25
    01:33:26.017                : Chapter 26
    01:37:16.956                : Chapter 27
    01:42:56.462                : Chapter 28

     

  • Peso: 27.1 GiB

Sinopsis

Ambientada en una sociedad futura. El hallazgo de una fórmula contra el envejecimiento trae consigo no sólo superpoblación, sino también la transformación del tiempo en moneda de cambio, que permite sufragar tanto lujos como necesidades. Los ricos pueden vivir para siempre, pero los demás tendrán que negociar cada minuto de vida, y los pobres mueren jóvenes. Después de conseguir, por casualidad, una inmensa cantidad de tiempo, Will Salas, un joven obrero, será perseguido por unos policías corruptos, conocidos como «los guardianes del tiempo». En su huida, Will tomará como rehén a una joven de familia adinerada.

Ficha técnica

Video trailer de la película

Enlaces de descarga

Rip de Bluray

Descargar In Time (2011) REMUX 1080p Latino – CMHDD




Aportes de DPeliculasHDmega la pass es:dpeliculashdmega.org Aportes de CinemaniaHD la pass es:cinemaniahdd.com Aportes recientes:cinemaniahdd.net
Guardado en : Acción , Ciencia ficción , Suspenso

Películas relacionadas

descargar In Time (2011) REMUX 1080p Latino – CMHDD Full 1080p 1080p gratis, In Time (2011) REMUX 1080p Latino – CMHDD Full 1080p mega 1 link, In Time (2011) REMUX 1080p Latino – CMHDD Full 1080p pelicula completa, descargar In Time (2011) REMUX 1080p Latino – CMHDD Full 1080p gratis en mega.

In Time (2011) REMUX 1080p Latino – CMHDD pelicula full hd, In Time (2011) REMUX 1080p Latino – CMHDD mega latino, In Time (2011) REMUX 1080p Latino – CMHDD 4k latino, In Time (2011) REMUX 1080p Latino – CMHDD pelicula completa, In Time (2011) REMUX 1080p Latino – CMHDD descargar gratis, descargar In Time (2011) REMUX 1080p Latino – CMHDD pelicula latino, In Time (2011) REMUX 1080p Latino – CMHDD 1 link mega, In Time (2011) REMUX 1080p Latino – CMHDD 1 link google drive, In Time (2011) REMUX 1080p Latino – CMHDD hd 1080p latino.
Comentarios 0