×

¿Problemas para descargar con Mozilla, EDGE? Deshabilita la opción "Abrir vinculos en una pestaña nueva" tal como lo muestra ésta imagen.

In the Line of Fire (1993) REMUX 4K HDR Latino – CMHDD

230 vistas

Información de In the Line of Fire (1993) REMUX 4K HDR Latino – CMHDD

Datos de la película

  • Calidad: 4K HDR
  • Audio: Español Latino AC3 5.1 BLURAY - Ingles DTS-HD Master 7.1 BLURAY
  • Subtitulos: Español Latino PGS
  • Resolución: 3840x2160p
  • Formato: MKV
  • Codec: H.264
  • Encoder: Dracarys
  • Mediainfo: Clic para Mostrar Datos Ver
  • Format                      : Matroska
    Format version              : Version 4
    File size                   : 57.1 GiB
    Duration                    : 2 h 8 min
    Overall bit rate mode       : Variable
    Overall bit rate            : 63.6 Mb/s
    Movie name                  : In the Line of Fire (1993) REMUX 4K HDR Latino - CMHDD
    Encoded date                : UTC 2023-05-30 03:59:14
    Writing application         : mkvmerge v47.0.0 ('Black Flag') 64-bit
    Writing library             : libebml v1.3.10 + libmatroska v1.5.2

    Video
    ID                          : 1
    ID in the original source m : 4113 (0x1011)
    Format                      : HEVC
    Format/Info                 : High Efficiency Video Coding
    Format profile              : Main 10@L5.1@High
    HDR format                  : SMPTE ST 2086, HDR10 compatible
    Codec ID                    : V_MPEGH/ISO/HEVC
    Duration                    : 2 h 8 min
    Bit rate                    : 58.3 Mb/s
    Width                       : 3 840 pixels
    Height                      : 2 160 pixels
    Display aspect ratio        : 16:9
    Frame rate mode             : Constant
    Frame rate                  : 23.976 (24000/1001) FPS
    Color space                 : YUV
    Chroma subsampling          : 4:2:0 (Type 2)
    Bit depth                   : 10 bits
    Bits/(Pixel*Frame)          : 0.293
    Stream size                 : 52.4 GiB (92%)
    Language                    : English
    Default                     : No
    Forced                      : No
    Color range                 : Limited
    Color primaries             : BT.2020
    Transfer characteristics    : PQ
    Matrix coefficients         : BT.2020 non-constant
    Mastering display color pri : Display P3
    Mastering display luminance : min: 0.0050 cd/m2, max: 4000 cd/m2
    Maximum Content Light Level : 1327 cd/m2
    Maximum Frame-Average Light : 713 cd/m2
    Original source medium      : Blu-ray

    Audio #1
    ID                          : 2
    Format                      : DTS XLL
    Format/Info                 : Digital Theater Systems
    Commercial name             : DTS-HD Master Audio
    Codec ID                    : A_DTS
    Duration                    : 2 h 8 min
    Bit rate mode               : Variable
    Bit rate                    : 3 989 kb/s
    Channel(s)                  : 8 channels
    Channel layout              : C L R LFE Lb Rb Lss Rss
    Sampling rate               : 48.0 kHz
    Frame rate                  : 93.750 FPS (512 SPF)
    Bit depth                   : 24 bits
    Compression mode            : Lossless
    Stream size                 : 3.58 GiB (6%)
    Title                       : DTS-HD MA 7.1
    Language                    : English
    Default                     : No
    Forced                      : No

    Audio #2
    ID                          : 3
    ID in the original source m : 4352 (0x1100)
    Format                      : AC-3
    Format/Info                 : Audio Coding 3
    Commercial name             : Dolby Digital
    Codec ID                    : A_AC3
    Duration                    : 2 h 8 min
    Bit rate mode               : Constant
    Bit rate                    : 640 kb/s
    Channel(s)                  : 6 channels
    Channel layout              : L R C LFE Ls Rs
    Sampling rate               : 48.0 kHz
    Frame rate                  : 31.250 FPS (1536 SPF)
    Compression mode            : Lossy
    Stream size                 : 589 MiB (1%)
    Title                       : DD 5.1
    Language                    : English
    Service kind                : Complete Main
    Default                     : No
    Forced                      : No
    Original source medium      : Blu-ray

    Audio #3
    ID                          : 4
    ID in the original source m : 4363 (0x110B)
    Format                      : AC-3
    Format/Info                 : Audio Coding 3
    Commercial name             : Dolby Digital
    Codec ID                    : A_AC3
    Duration                    : 2 h 8 min
    Bit rate mode               : Constant
    Bit rate                    : 640 kb/s
    Channel(s)                  : 6 channels
    Channel layout              : L R C LFE Ls Rs
    Sampling rate               : 48.0 kHz
    Frame rate                  : 31.250 FPS (1536 SPF)
    Compression mode            : Lossy
    Stream size                 : 589 MiB (1%)
    Title                       : DD 5.1
    Language                    : Spanish
    Service kind                : Complete Main
    Default                     : Yes
    Forced                      : No
    Original source medium      : Blu-ray

    Text
    ID                          : 5
    ID in the original source m : 4787 (0x12B3)
    Format                      : PGS
    Muxing mode                 : zlib
    Codec ID                    : S_HDMV/PGS
    Codec ID/Info               : Picture based subtitle format used on BDs/HD-DVDs
    Duration                    : 1 h 12 min
    Bit rate                    : 85 b/s
    Frame rate                  : 0.002 FPS
    Count of elements           : 8
    Stream size                 : 45.1 KiB (0%)
    Language                    : Spanish
    Default                     : No
    Forced                      : No
    Original source medium      : Blu-ray

    Menu
    00:00:00.000                : en:Chapter 01
    00:07:25.445                : en:Chapter 02
    00:11:48.249                : en:Chapter 03
    00:15:07.281                : en:Chapter 04
    00:23:37.457                : en:Chapter 05
    00:32:09.552                : en:Chapter 06
    00:40:57.037                : en:Chapter 07
    00:48:47.716                : en:Chapter 08
    00:56:36.601                : en:Chapter 09
    01:07:43.684                : en:Chapter 10
    01:12:28.635                : en:Chapter 11
    01:20:43.004                : en:Chapter 12
    01:35:50.578                : en:Chapter 13
    01:52:22.986                : en:Chapter 14
    01:54:12.470                : en:Chapter 15
    01:57:39.469                : en:Chapter 16

  • Peso: 57.1 GiB

Sinopsis

Veteran Secret Service agent Frank Horrigan is a man haunted by his failure to save President Kennedy while serving protection detail in Dallas. Thirty years later, a man calling himself «Booth» threatens the life of the current President, forcing Horrigan to come back to protection detail to confront the ghosts from his past.

Ficha técnica

Video trailer de la película

Enlaces de descarga

Rip de Bluray

Descargar In the Line of Fire (1993) REMUX 4K HDR Latino – CMHDD


Aportes de DPeliculasHDmega la pass es:dpeliculashdmega.org Aportes de CinemaniaHD la pass es:cinemaniahdd.com Aportes recientes:cinemaniahdd.net
Guardado en : Action , Crime , Drama , Mystery , Thriller

Películas relacionadas

descargar In the Line of Fire (1993) REMUX 4K HDR Latino – CMHDD 4K HDR 1080p gratis, In the Line of Fire (1993) REMUX 4K HDR Latino – CMHDD 4K HDR mega 1 link, In the Line of Fire (1993) REMUX 4K HDR Latino – CMHDD 4K HDR pelicula completa, descargar In the Line of Fire (1993) REMUX 4K HDR Latino – CMHDD 4K HDR gratis en mega.

In the Line of Fire (1993) REMUX 4K HDR Latino – CMHDD pelicula full hd, In the Line of Fire (1993) REMUX 4K HDR Latino – CMHDD mega latino, In the Line of Fire (1993) REMUX 4K HDR Latino – CMHDD 4k latino, In the Line of Fire (1993) REMUX 4K HDR Latino – CMHDD pelicula completa, In the Line of Fire (1993) REMUX 4K HDR Latino – CMHDD descargar gratis, descargar In the Line of Fire (1993) REMUX 4K HDR Latino – CMHDD pelicula latino, In the Line of Fire (1993) REMUX 4K HDR Latino – CMHDD 1 link mega, In the Line of Fire (1993) REMUX 4K HDR Latino – CMHDD 1 link google drive, In the Line of Fire (1993) REMUX 4K HDR Latino – CMHDD hd 1080p latino.
Comentarios 0