×

¿Problemas para descargar con Mozilla, EDGE? Deshabilita la opción "Abrir vinculos en una pestaña nueva" tal como lo muestra ésta imagen.

In the Know (2024) Primera Temporada PCOK WEB-DL 1080p Latino

157 vistas

Información de In the Know (2024) Primera Temporada PCOK WEB-DL 1080p Latino

Datos de la película

  • Calidad: 1080p
  • Audio: Español Latino AC3 2.0 WEB-DL - Ingles AC3 5.1 WEB-DL
  • Subtitulos: Español Latino SRT- FORZADOS SRT
  • Resolución: 1920x1080
  • Formato: MKV
  • Codec: H.264
  • Encoder: cinemaniahdd
  • Mediainfo: Clic para Mostrar Datos Ver
  • In the Know T01E01 PCOK WEB-DL 1080p Latino [CNMNHDD].mkv
    Format                      : Matroska
    Format version              : Version 4
    File size                   : 1.40 GiB
    Duration                    : 24 min 39 s
    Overall bit rate            : 8 114 kb/s
    Movie name                  : In the Know S01E01 - Im No Hero [1080p] - CinemaniaHDD.Net
    Encoded date                : UTC 2024-02-01 23:24:26
    Writing application         : mkvmerge v56.1.0 ('My Friend') 64-bit
    Writing library             : libebml v1.4.2 + libmatroska v1.6.4

    Video
    ID                          : 1
    Format                      : AVC
    Format/Info                 : Advanced Video Codec
    Format profile              : High@L4
    Format settings             : CABAC / 3 Ref Frames
    Format settings, CABAC      : Yes
    Format settings, Reference  : 3 frames
    Codec ID                    : V_MPEG4/ISO/AVC
    Duration                    : 24 min 39 s
    Bit rate                    : 7 814 kb/s
    Width                       : 1 920 pixels
    Height                      : 1 080 pixels
    Display aspect ratio        : 16:9
    Frame rate mode             : Constant
    Frame rate                  : 23.976 (24000/1001) FPS
    Color space                 : YUV
    Chroma subsampling          : 4:2:0
    Bit depth                   : 8 bits
    Scan type                   : Progressive
    Bits/(Pixel*Frame)          : 0.157
    Stream size                 : 1.35 GiB (96%)
    Title                       : CinemaniaHDD
    Writing library             : x264 core 164 r3095 baee400
    Encoding settings           : cabac=1 / ref=3 / deblock=1:0:0 / analyse=0x3:0x113 / me=umh / subme=7 / psy=1 / psy_rd=0.00:0.00 / mixed_ref=1 / me_range=16 / chroma_me=1 / trellis=1 / 8x8dct=1 / cqm=0 / deadzone=21,11 / fast_pskip=1 / chroma_qp_offset=0 / threads=34 / lookahead_threads=5 / sliced_threads=0 / nr=0 / decimate=1 / interlaced=0 / bluray_compat=0 / stitchable=1 / constrained_intra=0 / bframes=2 / b_pyramid=0 / b_adapt=1 / b_bias=0 / direct=1 / weightb=1 / open_gop=0 / weightp=2 / keyint=48 / keyint_min=4 / scenecut=0 / intra_refresh=0 / rc_lookahead=48 / rc=2pass / mbtree=1 / bitrate=7814 / ratetol=1.0 / qcomp=0.60 / qpmin=10 / qpmax=51 / qpstep=4 / cplxblur=20.0 / qblur=0.5 / vbv_maxrate=11729 / vbv_bufsize=11729 / nal_hrd=none / filler=0 / ip_ratio=1.41 / aq=1:1.00
    Default                     : Yes
    Forced                      : No
    Color range                 : Limited
    Color primaries             : BT.709
    Transfer characteristics    : BT.709
    Matrix coefficients         : BT.709

    Audio #1
    ID                          : 2
    Format                      : AAC LC
    Format/Info                 : Advanced Audio Codec Low Complexity
    Codec ID                    : A_AAC-2
    Duration                    : 24 min 39 s
    Bit rate                    : 96.0 kb/s
    Channel(s)                  : 2 channels
    Channel layout              : L R
    Sampling rate               : 48.0 kHz
    Frame rate                  : 46.875 FPS (1024 SPF)
    Compression mode            : Lossy
    Stream size                 : 16.8 MiB (1%)
    Title                       : Español Latino [CinemaniaHDD]
    Language                    : Spanish
    Default                     : Yes
    Forced                      : No

    Audio #2
    ID                          : 3
    Format                      : E-AC-3
    Format/Info                 : Enhanced AC-3
    Commercial name             : Dolby Digital Plus
    Codec ID                    : A_EAC3
    Duration                    : 24 min 39 s
    Bit rate mode               : Constant
    Bit rate                    : 192 kb/s
    Channel(s)                  : 6 channels
    Channel layout              : L R C LFE Ls Rs
    Sampling rate               : 48.0 kHz
    Frame rate                  : 31.250 FPS (1536 SPF)
    Compression mode            : Lossy
    Stream size                 : 33.9 MiB (2%)
    Title                       : Inglés [CinemaniaHDD]
    Language                    : English
    Service kind                : Complete Main
    Default                     : No
    Forced                      : No

    Text #1
    ID                          : 4
    Format                      : UTF-8
    Codec ID                    : S_TEXT/UTF8
    Codec ID/Info               : UTF-8 Plain Text
    Duration                    : 10 min 30 s
    Bit rate                    : 2 b/s
    Count of elements           : 5
    Stream size                 : 173 Bytes (0%)
    Title                       : Forzados [CinemaniaHDD]
    Language                    : Spanish
    Default                     : Yes
    Forced                      : Yes

    Text #2
    ID                          : 5
    Format                      : UTF-8
    Codec ID                    : S_TEXT/UTF8
    Codec ID/Info               : UTF-8 Plain Text
    Duration                    : 24 min 11 s
    Bit rate                    : 116 b/s
    Count of elements           : 593
    Stream size                 : 20.6 KiB (0%)
    Title                       : Español Latino [CinemaniaHDD]
    Language                    : Spanish
    Default                     : No
    Forced                      : No

    Text #3
    ID                          : 6
    Format                      : UTF-8
    Codec ID                    : S_TEXT/UTF8
    Codec ID/Info               : UTF-8 Plain Text
    Duration                    : 24 min 29 s
    Bit rate                    : 113 b/s
    Count of elements           : 589
    Stream size                 : 20.4 KiB (0%)
    Title                       : Inglés [CinemaniaHDD]
    Language                    : English
    Default                     : No
    Forced                      : No

     

  • Peso: 1.40 GiB Aprox ---- 9 GiB in 6 Chapters.

Sinopsis

Lauren Caspian es la tercera presentadora de radio pública más popular. Es un imbécil hipócrita y bien intencionado, como tú y como yo. También es un títere stop motion. Cada episodio sigue la realización de un episodio del programa de Lauren In the Know, en el que Lauren realiza entrevistas en profundidad con invitados humanos del mundo real. Lauren colabora con un equipo diverso de personal de NPR. También son marionetas y nimrods.

Ficha técnica

Video trailer de la película

Enlaces de descarga

Rip de Bluray

Descargar In the Know (2024) Primera Temporada PCOK WEB-DL 1080p Latino




Aportes de DPeliculasHDmega la pass es:dpeliculashdmega.org Aportes de CinemaniaHD la pass es:cinemaniahdd.com Aportes recientes:cinemaniahdd.net
Guardado en : Animación , Comedia , Series

Películas relacionadas

  • El Oso (2022) Temporada 2 WEB-DL 1080p Latino

    El Oso (2022) Temporada 2 WEB-DL 1080p Latino

    2022
    El Oso (2022) Temporada 2 WEB-DL 1080p Latino

    0h 0m 2022

    Descargar El Oso (2022) Temporada 2 WEB-DL 1080p Latino. Carmy, un joven chef de alta cocina, vuelve...

    Director: Christopher Storer

    Género: Comedia

    Actores: Matty Matheson

  • El Oso (2022) Temporada 1 WEB-DL 1080p Latino

    El Oso (2022) Temporada 1 WEB-DL 1080p Latino

    2022
    El Oso (2022) Temporada 1 WEB-DL 1080p Latino

    0h 0m 2022

    Descargar El Oso (2022) Temporada 1 WEB-DL 1080p Latino. Carmy, un joven chef de alta cocina, vuelve...

    Director: Christopher Storer

    Género: Comedia

    Actores: Matty Matheson

  • The Acolyte (2024) Temporada 1 WEB-DL 1080p Latino

    The Acolyte (2024) Temporada 1 WEB-DL 1080p Latino

    2024
    The Acolyte (2024) Temporada 1 WEB-DL 1080p Latino

    0h 0m 2024

    Descargar The Acolyte (2024) Temporada 1 WEB-DL 1080p Latino. Una investigación sobre una impactante...

    Director: Leslye Headland

    Género: Misterio

    Actores: 이정재

descargar In the Know (2024) Primera Temporada PCOK WEB-DL 1080p Latino 1080p 1080p gratis, In the Know (2024) Primera Temporada PCOK WEB-DL 1080p Latino 1080p mega 1 link, In the Know (2024) Primera Temporada PCOK WEB-DL 1080p Latino 1080p serie completa, descargar In the Know (2024) Primera Temporada PCOK WEB-DL 1080p Latino 1080p gratis en mega.

In the Know (2024) Primera Temporada PCOK WEB-DL 1080p Latino pelicula full hd, In the Know (2024) Primera Temporada PCOK WEB-DL 1080p Latino mega latino, In the Know (2024) Primera Temporada PCOK WEB-DL 1080p Latino 4k latino, In the Know (2024) Primera Temporada PCOK WEB-DL 1080p Latino pelicula completa, In the Know (2024) Primera Temporada PCOK WEB-DL 1080p Latino descargar gratis, descargar In the Know (2024) Primera Temporada PCOK WEB-DL 1080p Latino pelicula latino, In the Know (2024) Primera Temporada PCOK WEB-DL 1080p Latino 1 link mega, In the Know (2024) Primera Temporada PCOK WEB-DL 1080p Latino 1 link google drive, In the Know (2024) Primera Temporada PCOK WEB-DL 1080p Latino hd 1080p latino.
Comentarios 0