In The Heights (2021) HMAX WEB-DL 1080p Latino

49 vistas
1 estrella2 estrellas3 estrellas4 estrellas5 estrellas (1 votos, promedio: 5,00 de 5)
Cargando...

Información de In The Heights (2021) HMAX WEB-DL 1080p Latino

Datos de la película

  • Calidad: 1080p
  • Audio: Español Latino AC3 5.1 WEB-DL - Ingles AC3 5.1 WEB-DL
  • Subtitulos: Español Latino SRT - Ingles SRT
  • Resolución: 1920x1080
  • Formato: MKV
  • Codec: H.264
  • Encoder: cinemaniahdd
  • Mediainfo: Clic para Mostrar Datos Ver
  • In The Heights (2021) HMAX WEB-DL 1080p Latino [CNMNHDD].mkv
    Format                      : Matroska
    Format version              : Version 4
    File size                   : 9.00 GiB
    Duration                    : 2 h 22 min
    Overall bit rate mode       : Variable
    Overall bit rate            : 9 012 kb/s
    Movie name                  : In The Heights (2021) - CinemaniaHDD.Net
    Encoded date                : UTC 2021-06-11 01:46:07
    Writing application         : mkvmerge v56.1.0 ('My Friend') 64-bit
    Writing library             : libebml v1.4.2 + libmatroska v1.6.4

    Video
    ID                          : 1
    Format                      : AVC
    Format/Info                 : Advanced Video Codec
    Format profile              : High@L4
    Format settings             : CABAC / 4 Ref Frames
    Format settings, CABAC      : Yes
    Format settings, Reference  : 4 frames
    Codec ID                    : V_MPEG4/ISO/AVC
    Duration                    : 2 h 22 min
    Bit rate mode               : Variable
    Bit rate                    : 8 250 kb/s
    Maximum bit rate            : 12.4 Mb/s
    Width                       : 1 920 pixels
    Height                      : 816 pixels
    Display aspect ratio        : 2.35:1
    Frame rate mode             : Constant
    Frame rate                  : 23.976 (24000/1001) FPS
    Color space                 : YUV
    Chroma subsampling          : 4:2:0
    Bit depth                   : 8 bits
    Scan type                   : Progressive
    Bits/(Pixel*Frame)          : 0.220
    Stream size                 : 8.23 GiB (91%)
    Title                       : CinemaniaHDD
    Writing library             : x264 core 157 r2965 861cec4

    Language                    : Spanish
    Default                     : Yes
    Forced                      : No
    Color range                 : Limited
    Color primaries             : BT.709
    Transfer characteristics    : BT.709
    Matrix coefficients         : BT.709

    Audio #1
    ID                          : 2
    Format                      : AC-3
    Format/Info                 : Audio Coding 3
    Commercial name             : Dolby Digital
    Codec ID                    : A_AC3
    Duration                    : 2 h 22 min
    Bit rate mode               : Constant
    Bit rate                    : 384 kb/s
    Channel(s)                  : 6 channels
    Channel layout              : L R C LFE Ls Rs
    Sampling rate               : 48.0 kHz
    Frame rate                  : 31.250 FPS (1536 SPF)
    Compression mode            : Lossy
    Stream size                 : 393 MiB (4%)
    Title                       : Español latino [CinemaniaHDD]
    Language                    : Spanish
    Service kind                : Complete Main
    Default                     : Yes
    Forced                      : No

    Audio #2
    ID                          : 3
    Format                      : AC-3
    Format/Info                 : Audio Coding 3
    Commercial name             : Dolby Digital
    Codec ID                    : A_AC3
    Duration                    : 2 h 22 min
    Bit rate mode               : Constant
    Bit rate                    : 384 kb/s
    Channel(s)                  : 6 channels
    Channel layout              : L R C LFE Ls Rs
    Sampling rate               : 48.0 kHz
    Frame rate                  : 31.250 FPS (1536 SPF)
    Compression mode            : Lossy
    Stream size                 : 393 MiB (4%)
    Title                       : Inglés [CinemaniaHDD]
    Language                    : English
    Service kind                : Complete Main
    Default                     : No
    Forced                      : No

    Text #1
    ID                          : 4
    Format                      : UTF-8
    Codec ID                    : S_TEXT/UTF8
    Codec ID/Info               : UTF-8 Plain Text
    Duration                    : 2 h 22 min
    Bit rate                    : 83 b/s
    Count of elements           : 2786
    Stream size                 : 86.8 KiB (0%)
    Title                       : Español latino [CC] [CinemaniaHDD]
    Language                    : Spanish
    Default                     : No
    Forced                      : No

    Text #2
    ID                          : 5
    Format                      : UTF-8
    Codec ID                    : S_TEXT/UTF8
    Codec ID/Info               : UTF-8 Plain Text
    Duration                    : 2 h 22 min
    Bit rate                    : 92 b/s
    Count of elements           : 2295
    Stream size                 : 96.8 KiB (0%)
    Title                       : Inglés [CC] [CinemaniaHDD]
    Language                    : English
    Default                     : No
    Forced                      : No

     

  • Peso: 9.00 GiB

Sinopsis

Adaptación del musical de Broadway de Lin-Manuel Miranda en el que el propietario de una bodega duda sobre si cerrar su negocio y retirarse a la República Dominicana tras heredar la fortuna de su abuela.

Ficha técnica

  • Titulo original: In The Heights
  • Fecha de lanzamiento: 10-06-2021 (United States of America)
  • Director: Jon M. Chu
  • Género: Drama, HBOMAX, Música, Romance
  • Puntuación: 5.0 1 votos
  • Duración:
    2h 23m

Video trailer de la película

Enlaces de descarga

Rip de Bluray

Descargar In The Heights (2021) HMAX WEB-DL 1080p Latino




Aportes de DPeliculasHDmega la pass es:dpeliculashdmega.org Aportes de CinemaniaHD la pass es:cinemaniahdd.com
Guardado en : Drama , HBOMAX , Música , Romance

Películas relacionadas

In The Heights (2021) HMAX WEB-DL 1080p Latino pelicula full hd, In The Heights (2021) HMAX WEB-DL 1080p Latino mega latino, In The Heights (2021) HMAX WEB-DL 1080p Latino 4k latino, In The Heights (2021) HMAX WEB-DL 1080p Latino pelicula completa, In The Heights (2021) HMAX WEB-DL 1080p Latino descargar gratis, descargar In The Heights (2021) HMAX WEB-DL 1080p Latino pelicula latino, In The Heights (2021) HMAX WEB-DL 1080p Latino 1 link mega, In The Heights (2021) HMAX WEB-DL 1080p Latino 1 link google drive, In The Heights (2021) HMAX WEB-DL 1080p Latino hd 1080p latino.
Comentarios 0