×

¿Problemas para descargar con Mozilla, EDGE? Deshabilita la opción "Abrir vinculos en una pestaña nueva" tal como lo muestra ésta imagen.

In the Dark (2022) Cuarta Temporada CBS WEB-DL 1080p Latino

39 vistas

Información de In the Dark (2022) Cuarta Temporada CBS WEB-DL 1080p Latino

Datos de la película

  • Calidad: 1080p
  • Audio: Español Latino AC3 5.1 WEB-DL - Ingles AC3 5.1 WEB-DL
  • Subtitulos: Español Latino SRT
  • Resolución: 1920x1080
  • Formato: MKV
  • Codec: H.264
  • Encoder: cinemaniahdd
  • Mediainfo: Clic para Mostrar Datos Ver
  • In The Dark T04E01 CBS WEB-DL 1080p Latino [CNMNHDD].mkv
    Format                      : Matroska
    Format version              : Version 4
    File size                   : 1.58 GiB
    Duration                    : 42 min 33 s
    Overall bit rate mode       : Variable
    Overall bit rate            : 5 329 kb/s
    Movie name                  : In The Dark S04E01 [1080p] - CinemaniaHDD.Net
    Encoded date                : UTC 2022-11-05 01:58:58
    Writing application         : mkvmerge v59.0.0 ('Shining Star') 64-bit
    Writing library             : libebml v1.4.2 + libmatroska v1.6.4

    Video
    ID                          : 1
    Format                      : AVC
    Format/Info                 : Advanced Video Codec
    Format profile              : High@L4
    Format settings             : CABAC / 4 Ref Frames
    Format settings, CABAC      : Yes
    Format settings, Reference  : 4 frames
    Codec ID                    : V_MPEG4/ISO/AVC
    Duration                    : 42 min 33 s
    Bit rate mode               : Variable
    Bit rate                    : 4 559 kb/s
    Width                       : 1 920 pixels
    Height                      : 1 080 pixels
    Display aspect ratio        : 16:9
    Frame rate mode             : Constant
    Frame rate                  : 23.976 (24000/1001) FPS
    Color space                 : YUV
    Chroma subsampling          : 4:2:0
    Bit depth                   : 8 bits
    Scan type                   : Progressive
    Bits/(Pixel*Frame)          : 0.092
    Stream size                 : 1.35 GiB (86%)
    Title                       : CinemaniaHDD
    Default                     : Yes
    Forced                      : No

    Audio #1
    ID                          : 2
    Format                      : AC-3
    Format/Info                 : Audio Coding 3
    Commercial name             : Dolby Digital
    Codec ID                    : A_AC3
    Duration                    : 42 min 33 s
    Bit rate mode               : Constant
    Bit rate                    : 384 kb/s
    Channel(s)                  : 6 channels
    Channel layout              : L R C LFE Ls Rs
    Sampling rate               : 48.0 kHz
    Frame rate                  : 31.250 FPS (1536 SPF)
    Compression mode            : Lossy
    Stream size                 : 117 MiB (7%)
    Title                       : Español latino [CinemaniaHDD]
    Language                    : Spanish
    Service kind                : Complete Main
    Default                     : No
    Forced                      : No

    Audio #2
    ID                          : 3
    Format                      : AC-3
    Format/Info                 : Audio Coding 3
    Commercial name             : Dolby Digital
    Codec ID                    : A_AC3
    Duration                    : 42 min 33 s
    Bit rate mode               : Constant
    Bit rate                    : 384 kb/s
    Channel(s)                  : 6 channels
    Channel layout              : L R C LFE Ls Rs
    Sampling rate               : 48.0 kHz
    Frame rate                  : 31.250 FPS (1536 SPF)
    Compression mode            : Lossy
    Stream size                 : 117 MiB (7%)
    Title                       : Inglés [CinemaniaHDD]
    Language                    : English
    Service kind                : Complete Main
    Default                     : No
    Forced                      : No

    Text
    ID                          : 4
    Format                      : UTF-8
    Codec ID                    : S_TEXT/UTF8
    Codec ID/Info               : UTF-8 Plain Text
    Duration                    : 42 min 31 s
    Bit rate                    : 51 b/s
    Count of elements           : 612
    Stream size                 : 16.1 KiB (0%)
    Title                       : Español latino [CinemaniaHDD]
    Language                    : Spanish
    Default                     : No
    Forced                      : No

     

  • Peso: 1.58 GiB Aprox ---- 20 GiB in 13 Chapters.

Sinopsis

Una mujer ciega imperfecta e irreverente es la única testigo del asesinato de su amigo traficante de drogas. Después de que la policía desestime su historia, decide que junto con su perro, Pretzel, deben encontrar al asesino mientras maneja su colorida vida amorosa y el trabajo que odia en Guiding Hope, la escuela de perros guía propiedad de sus sobreprotectores padres.

Ficha técnica

Video trailer de la película

Enlaces de descarga

Rip de Bluray

Descargar In the Dark (2022) Cuarta Temporada CBS WEB-DL 1080p Latino




Aportes de DPeliculasHDmega la pass es:dpeliculashdmega.org Aportes de CinemaniaHD la pass es:cinemaniahdd.com
Guardado en : Comedia , Drama , Series

Películas relacionadas

descargar In the Dark (2022) Cuarta Temporada CBS WEB-DL 1080p Latino 1080p 1080p gratis, In the Dark (2022) Cuarta Temporada CBS WEB-DL 1080p Latino 1080p mega 1 link, In the Dark (2022) Cuarta Temporada CBS WEB-DL 1080p Latino 1080p serie completa, descargar In the Dark (2022) Cuarta Temporada CBS WEB-DL 1080p Latino 1080p gratis en mega.

In the Dark (2022) Cuarta Temporada CBS WEB-DL 1080p Latino pelicula full hd, In the Dark (2022) Cuarta Temporada CBS WEB-DL 1080p Latino mega latino, In the Dark (2022) Cuarta Temporada CBS WEB-DL 1080p Latino 4k latino, In the Dark (2022) Cuarta Temporada CBS WEB-DL 1080p Latino pelicula completa, In the Dark (2022) Cuarta Temporada CBS WEB-DL 1080p Latino descargar gratis, descargar In the Dark (2022) Cuarta Temporada CBS WEB-DL 1080p Latino pelicula latino, In the Dark (2022) Cuarta Temporada CBS WEB-DL 1080p Latino 1 link mega, In the Dark (2022) Cuarta Temporada CBS WEB-DL 1080p Latino 1 link google drive, In the Dark (2022) Cuarta Temporada CBS WEB-DL 1080p Latino hd 1080p latino.
Comentarios 0