×

¿Problemas para descargar con Mozilla, EDGE? Deshabilita la opción "Abrir vinculos en una pestaña nueva" tal como lo muestra ésta imagen.

In the Dark (2021) Tercera Temporada CW WEB-DL 1080p Latino

195 vistas

Información de In the Dark (2021) Tercera Temporada CW WEB-DL 1080p Latino

Datos de la película

  • Calidad: 1080p
  • Audio: Español Latino AC3 5.1 WEB-DL - Ingles AC3 5.1 WEB-DL
  • Subtitulos: Español Latino SRT- FORZADOS SRT
  • Resolución: 1920x1080
  • Formato: MKV
  • Codec: H.264
  • Encoder: cinemaniahdd
  • Mediainfo: Clic para Mostrar Datos Ver
  • In the Dark T03E01 CW WEB-DL 1080p Latino [CNMNHDD].mkv
    Format                      : Matroska
    Format version              : Version 4
    File size                   : 1.49 GiB
    Duration                    : 41 min 30 s
    Overall bit rate mode       : Variable
    Overall bit rate            : 5 142 kb/s
    Movie name                  : In the Dark T03E01 - CinemaniaHDD.Net
    Encoded date                : UTC 2021-10-16 00:41:46
    Writing application         : mkvmerge v44.0.0 ('Domino') 64-bit
    Writing library             : libebml v1.3.10 + libmatroska v1.5.2

    Video
    ID                          : 1
    Format                      : AVC
    Format/Info                 : Advanced Video Codec
    Format profile              : High@L4
    Format settings             : CABAC / 4 Ref Frames
    Format settings, CABAC      : Yes
    Format settings, Reference  : 4 frames
    Codec ID                    : V_MPEG4/ISO/AVC
    Duration                    : 41 min 30 s
    Bit rate mode               : Variable
    Bit rate                    : 4 373 kb/s
    Width                       : 1 920 pixels
    Height                      : 1 080 pixels
    Display aspect ratio        : 16:9
    Frame rate mode             : Constant
    Frame rate                  : 23.976 (24000/1001) FPS
    Color space                 : YUV
    Chroma subsampling          : 4:2:0
    Bit depth                   : 8 bits
    Scan type                   : Progressive
    Bits/(Pixel*Frame)          : 0.088
    Stream size                 : 1.27 GiB (85%)
    Title                       : CinemaniaHDD
    Default                     : Yes
    Forced                      : No

    Audio #1
    ID                          : 2
    Format                      : AC-3
    Format/Info                 : Audio Coding 3
    Commercial name             : Dolby Digital
    Codec ID                    : A_AC3
    Duration                    : 41 min 30 s
    Bit rate mode               : Constant
    Bit rate                    : 384 kb/s
    Channel(s)                  : 6 channels
    Channel layout              : L R C LFE Ls Rs
    Sampling rate               : 48.0 kHz
    Frame rate                  : 31.250 FPS (1536 SPF)
    Compression mode            : Lossy
    Stream size                 : 114 MiB (7%)
    Title                       : Español latino [CinemaniaHDD]
    Language                    : Spanish
    Service kind                : Complete Main
    Default                     : Yes
    Forced                      : No

    Audio #2
    ID                          : 3
    Format                      : AC-3
    Format/Info                 : Audio Coding 3
    Commercial name             : Dolby Digital
    Codec ID                    : A_AC3
    Duration                    : 41 min 30 s
    Bit rate mode               : Constant
    Bit rate                    : 384 kb/s
    Channel(s)                  : 6 channels
    Channel layout              : L R C LFE Ls Rs
    Sampling rate               : 48.0 kHz
    Frame rate                  : 31.250 FPS (1536 SPF)
    Compression mode            : Lossy
    Stream size                 : 114 MiB (7%)
    Title                       : Inglés [CinemaniaHDD]
    Language                    : English
    Service kind                : Complete Main
    Default                     : No
    Forced                      : No

    Text #1
    ID                          : 4
    Format                      : UTF-8
    Codec ID                    : S_TEXT/UTF8
    Codec ID/Info               : UTF-8 Plain Text
    Duration                    : 40 min 54 s
    Bit rate                    : 78 b/s
    Count of elements           : 744
    Stream size                 : 23.4 KiB (0%)
    Title                       : Español latino [CinemaniaHDD]
    Language                    : Spanish
    Default                     : No
    Forced                      : No

    Text #2
    ID                          : 5
    Format                      : UTF-8
    Codec ID                    : S_TEXT/UTF8
    Codec ID/Info               : UTF-8 Plain Text
    Duration                    : 36 min 37 s
    Bit rate                    : 2 b/s
    Count of elements           : 23
    Stream size                 : 659 Bytes (0%)
    Title                       : Forzados [CinemaniaHDD]
    Language                    : Spanish
    Default                     : No
    Forced                      : Yes

     

  • Peso: 1.49 GiB Aprox ---- 21 GiB in 13 Chapters.

Sinopsis

Murphy es una joven ciega e irreverente que resulta ser el único testigo del asesinato de su amigo narcotraficante. Cuando la policía desestima el caso, decide salir por su cuenta a encontrar al responsable con la ayuda de su perro guía, Pretzel. Para ello, ha de organizar su vida sentimental además de su trabajo en la escuela de perros guía que poseen sus padres, el cual odia.

Cuando Murphy descubre el cadáver de Tyson, el policía Dean decide aceptar el caso, pues él mismo tiene una hija invidente por lo que esa sensibilidad podría ayudarle a manejar mejor el desarrollo de la investigación. Si bien este, al principio no la cree -al igual que el resto de las autoridades-, pronto comienza a pensar que lo que dice sí puede ser verdad.

Ficha técnica

Video trailer de la película

Enlaces de descarga

Rip de Bluray

Descargar In the Dark (2021) Tercera Temporada CW WEB-DL 1080p Latino




Aportes de DPeliculasHDmega la pass es:dpeliculashdmega.org Aportes de CinemaniaHD la pass es:cinemaniahdd.com
Guardado en : Comedia , Drama , Series

Películas relacionadas

  • Zola (2020) HD 1080p Latino

    Zola (2020) HD 1080p Latino

    2020
    Zola (2020) HD 1080p Latino

    1h 26m 2020

    Descargar Zola (2020) HD 1080p Latino. Una camarera accede a acompañar a una bailarina exótica, su...

    Director: Sheri Davani

    Género: Comedia

    Actores: Ts Madison

  • Zola (2020) PLACEBO Full HD 1080p Latino

    Zola (2020) PLACEBO Full HD 1080p Latino

    2020
    Zola (2020) PLACEBO Full HD 1080p Latino

    1h 26m 2020

    Descargar Zola (2020) PLACEBO Full HD 1080p Latino. Una camarera accede a acompañar a una bailarina...

    Director: Sheri Davani

    Género: Comedia

    Actores: Ts Madison

  • Zola (2020) REMUX 1080p Latino

    Zola (2020) REMUX 1080p Latino

    2020
    Zola (2020) REMUX 1080p Latino

    1h 26m 2020

    Descargar Zola (2020) REMUX 1080p Latino. Una camarera accede a acompañar a una bailarina exótica,...

    Director: Sheri Davani

    Género: Comedia

    Actores: Ts Madison

descargar In the Dark (2021) Tercera Temporada CW WEB-DL 1080p Latino 1080p 1080p gratis, In the Dark (2021) Tercera Temporada CW WEB-DL 1080p Latino 1080p mega 1 link, In the Dark (2021) Tercera Temporada CW WEB-DL 1080p Latino 1080p serie completa, descargar In the Dark (2021) Tercera Temporada CW WEB-DL 1080p Latino 1080p gratis en mega.

In the Dark (2021) Tercera Temporada CW WEB-DL 1080p Latino pelicula full hd, In the Dark (2021) Tercera Temporada CW WEB-DL 1080p Latino mega latino, In the Dark (2021) Tercera Temporada CW WEB-DL 1080p Latino 4k latino, In the Dark (2021) Tercera Temporada CW WEB-DL 1080p Latino pelicula completa, In the Dark (2021) Tercera Temporada CW WEB-DL 1080p Latino descargar gratis, descargar In the Dark (2021) Tercera Temporada CW WEB-DL 1080p Latino pelicula latino, In the Dark (2021) Tercera Temporada CW WEB-DL 1080p Latino 1 link mega, In the Dark (2021) Tercera Temporada CW WEB-DL 1080p Latino 1 link google drive, In the Dark (2021) Tercera Temporada CW WEB-DL 1080p Latino hd 1080p latino.
Comentarios 0