×

¿Problemas para descargar con Mozilla, EDGE? Deshabilita la opción "Abrir vinculos en una pestaña nueva" tal como lo muestra ésta imagen.

In the Dark (2019) Temporada 1 CW WEB-DL 1080p Latino

524 vistas

Información de In the Dark (2019) Temporada 1 CW WEB-DL 1080p Latino

Datos de la película

  • Calidad: WEBDL
  • Audio: Se especifica abajo de la Sinopsis
  • Subtitulos: Español Latino SRT - Ingles SRT
  • Resolución: 1920x1080
  • Formato: MKV
  • Codec: H.264
  • Encoder: cinemaniahdd
  • Mediainfo: Clic para Mostrar Datos Ver
  • In The Dark T01E13 CW WEB-DL 1080p Latino [CNMNHDD].mkv
    Format                      : Matroska
    Format version              : Version 4
    File size                   : 1.52 GiB
    Duration                    : 42 min 33 s
    Overall bit rate mode       : Variable
    Overall bit rate            : 5 126 kb/s
    Movie name                  : In The Dark T01E13 - CinemaniaHDD.Net
    Encoded date                : UTC 2020-07-18 06:25:07
    Writing application         : mkvmerge v30.1.0 ('Forever And More') 64-bit
    Writing library             : libebml v1.3.6 + libmatroska v1.4.9 / Lavf58.28.101

    Video
    ID                          : 1
    Format                      : AVC
    Format/Info                 : Advanced Video Codec
    Format profile              : Main@L4
    Format settings             : CABAC / 3 Ref Frames
    Format settings, CABAC      : Yes
    Format settings, Reference  : 3 frames
    Codec ID                    : V_MPEG4/ISO/AVC
    Duration                    : 42 min 33 s
    Bit rate mode               : Variable
    Bit rate                    : 4 640 kb/s
    Maximum bit rate            : 6 960 kb/s
    Width                       : 1 920 pixels
    Height                      : 1 080 pixels
    Display aspect ratio        : 16:9
    Frame rate mode             : Constant
    Frame rate                  : 23.976 (24000/1001) FPS
    Color space                 : YUV
    Chroma subsampling          : 4:2:0
    Bit depth                   : 8 bits
    Scan type                   : Progressive
    Bits/(Pixel*Frame)          : 0.093
    Stream size                 : 1.37 GiB (90%)
    Title                       : CinemaniaHDD
    Writing library             : x264 core 148 r2715 7e75228
    Encoding settings           : cabac=1 / ref=3 / deblock=1:0:0 / analyse=0x1:0x111 / me=umh / subme=10 / psy=1 / psy_rd=1.00:0.00 / mixed_ref=1 / me_range=24 / chroma_me=1 / trellis=2 / 8x8dct=0 / cqm=0 / deadzone=21,11 / fast_pskip=1 / chroma_qp_offset=-2 / threads=6 / lookahead_threads=1 / sliced_threads=0 / nr=0 / decimate=1 / interlaced=0 / bluray_compat=0 / stitchable=1 / constrained_intra=0 / bframes=2 / b_pyramid=0 / b_adapt=2 / b_bias=0 / direct=3 / weightb=1 / open_gop=0 / weightp=2 / keyint=250 / keyint_min=23 / scenecut=0 / intra_refresh=0 / rc_lookahead=48 / rc=2pass / mbtree=1 / bitrate=4640 / ratetol=1.0 / qcomp=0.50 / qpmin=6 / qpmax=51 / qpstep=4 / cplxblur=20.0 / qblur=0.5 / vbv_maxrate=6960 / vbv_bufsize=9280 / nal_hrd=vbr / filler=0 / ip_ratio=1.40 / aq=1:1.00
    Default                     : Yes
    Forced                      : No

    Audio #1
    ID                          : 2
    Format                      : E-AC-3
    Format/Info                 : Enhanced AC-3
    Commercial name             : Dolby Digital Plus
    Codec ID                    : A_EAC3
    Duration                    : 42 min 33 s
    Bit rate mode               : Constant
    Bit rate                    : 128 kb/s
    Channel(s)                  : 2 channels
    Channel layout              : L R
    Sampling rate               : 48.0 kHz
    Frame rate                  : 31.250 FPS (1536 SPF)
    Compression mode            : Lossy
    Stream size                 : 39.0 MiB (2%)
    Title                       : Español latino [CinemaniaHDD]
    Language                    : Spanish
    Service kind                : Complete Main
    Default                     : Yes
    Forced                      : No

    Audio #2
    ID                          : 3
    Format                      : AC-3
    Format/Info                 : Audio Coding 3
    Commercial name             : Dolby Digital
    Codec ID                    : A_AC3
    Duration                    : 42 min 33 s
    Bit rate mode               : Constant
    Bit rate                    : 384 kb/s
    Channel(s)                  : 6 channels
    Channel layout              : L R C LFE Ls Rs
    Sampling rate               : 48.0 kHz
    Frame rate                  : 31.250 FPS (1536 SPF)
    Compression mode            : Lossy
    Stream size                 : 117 MiB (7%)
    Title                       : Inglés [CinemaniaHDD]
    Language                    : English
    Service kind                : Complete Main
    Default                     : No
    Forced                      : No

    Text #1
    ID                          : 4
    Format                      : UTF-8
    Codec ID                    : S_TEXT/UTF8
    Codec ID/Info               : UTF-8 Plain Text
    Duration                    : 42 min 24 s
    Bit rate                    : 55 b/s
    Count of elements           : 547
    Stream size                 : 17.4 KiB (0%)
    Title                       : Español latino [CinemaniaHDD]
    Language                    : Spanish
    Default                     : No
    Forced                      : No

    Text #2
    ID                          : 5
    Format                      : UTF-8
    Codec ID                    : S_TEXT/UTF8
    Codec ID/Info               : UTF-8 Plain Text
    Duration                    : 42 min 1 s
    Bit rate                    : 67 b/s
    Count of elements           : 1229
    Stream size                 : 20.8 KiB (0%)
    Title                       : Inglés [CinemaniaHDD]
    Language                    : English
    Default                     : No
    Forced                      : No

     

  • Peso: 1.52 GiB C/U APROX --- 19.4 GiB in 13 chapter

Sinopsis

Murphy es una joven ciega e irreverente que resulta ser el único testigo del asesinato de su amigo narcotraficante. Cuando la policía desestima el caso, decide salir por su cuenta a encontrar al responsable con la ayuda de su perro guía, Pretzel. Para ello, ha de organizar su vida sentimental además de su trabajo en la escuela de perros guía que poseen sus padres, el cual odia.

Cuando Murphy descubre el cadáver de Tyson, el policía Dean decide aceptar el caso, pues él mismo tiene una hija invidente por lo que esa sensibilidad podría ayudarle a manejar mejor el desarrollo de la investigación. Si bien este, al principio no la cree -al igual que el resto de las autoridades-, pronto comienza a pensar que lo que dice sí puede ser verdad.

Español Latino EAC3 2.0 CW – Ingles AC3 5.1 CW

Ficha técnica

Video trailer de la película

Enlaces de descarga

Rip de Bluray

Descargar In the Dark (2019) Temporada 1 CW WEB-DL 1080p Latino




Aportes de DPeliculasHDmega la pass es:dpeliculashdmega.org Aportes de CinemaniaHD la pass es:cinemaniahdd.com
Guardado en : Comedia , Drama , Series

Películas relacionadas

descargar In the Dark (2019) Temporada 1 CW WEB-DL 1080p Latino WEBDL 1080p gratis, In the Dark (2019) Temporada 1 CW WEB-DL 1080p Latino WEBDL mega 1 link, In the Dark (2019) Temporada 1 CW WEB-DL 1080p Latino WEBDL serie completa, descargar In the Dark (2019) Temporada 1 CW WEB-DL 1080p Latino WEBDL gratis en mega.

In the Dark (2019) Temporada 1 CW WEB-DL 1080p Latino pelicula full hd, In the Dark (2019) Temporada 1 CW WEB-DL 1080p Latino mega latino, In the Dark (2019) Temporada 1 CW WEB-DL 1080p Latino 4k latino, In the Dark (2019) Temporada 1 CW WEB-DL 1080p Latino pelicula completa, In the Dark (2019) Temporada 1 CW WEB-DL 1080p Latino descargar gratis, descargar In the Dark (2019) Temporada 1 CW WEB-DL 1080p Latino pelicula latino, In the Dark (2019) Temporada 1 CW WEB-DL 1080p Latino 1 link mega, In the Dark (2019) Temporada 1 CW WEB-DL 1080p Latino 1 link google drive, In the Dark (2019) Temporada 1 CW WEB-DL 1080p Latino hd 1080p latino.
Comentarios 0