×

¿Problemas para descargar con Mozilla, EDGE? Deshabilita la opción "Abrir vinculos en una pestaña nueva" tal como lo muestra ésta imagen.

In Full Bloom (2019) Full HD 1080p Latino

344 vistas

Información de In Full Bloom (2019) Full HD 1080p Latino

Datos de la película

  • Calidad: Full 1080p
  • Audio: Español Latino AC3 5.1 iTUNES - Ingles DTS 5.1 BLURAY
  • Subtitulos: Español Latino SRT- FORZADOS SRT
  • Resolución: 1920x1080p
  • Formato: MKV
  • Codec: H.264
  • Encoder: CinemaniaHD
  • Mediainfo: Clic para Mostrar Datos Ver
  • In Full Bloom (2019) Full HD 1080p Latino.mkv
    Format                      : Matroska
    Format version              : Version 4
    File size                   : 3.89 GiB
    Duration                    : 1 h 28 min
    Overall bit rate            : 6 320 kb/s
    Movie name                  : In Full Bloom (2019) CinemaniaHDD.Net
    Encoded date                : UTC 2020-05-10 23:05:35
    Writing application         : mkvmerge v42.0.0 ('Overtime') 64-bit
    Writing library             : libebml v1.3.10 + libmatroska v1.5.2
    Attachments                 : CINEMANIAHD.png

    Video
    ID                          : 1
    Format                      : AVC
    Format/Info                 : Advanced Video Codec
    Format profile              : High@L4.1
    Format settings             : CABAC / 4 Ref Frames
    Format settings, CABAC      : Yes
    Format settings, ReFrames   : 4 frames
    Codec ID                    : V_MPEG4/ISO/AVC
    Duration                    : 1 h 28 min
    Bit rate                    : 4 363 kb/s
    Width                       : 1 920 pixels
    Height                      : 1 080 pixels
    Display aspect ratio        : 16:9
    Frame rate mode             : Constant
    Frame rate                  : 50.000 FPS
    Color space                 : YUV
    Chroma subsampling          : 4:2:0
    Bit depth                   : 8 bits
    Scan type                   : Progressive
    Bits/(Pixel*Frame)          : 0.042
    Stream size                 : 2.68 GiB (69%)
    Title                       : Full HD1080p [CinemaniaHDD]
    Writing library             : x264 core 157 r2935 545de2f
    Encoding settings           : cabac=1 / ref=4 / deblock=1:0:0 / analyse=0x3:0x133 / me=tesa / subme=11 / psy=1 / psy_rd=1.00:0.00 / mixed_ref=1 / me_range=24 / chroma_me=1 / trellis=2 / 8x8dct=1 / cqm=0 / deadzone=21,11 / fast_pskip=0 / chroma_qp_offset=-2 / threads=34 / lookahead_threads=8 / sliced_threads=0 / nr=0 / decimate=1 / interlaced=0 / bluray_compat=0 / constrained_intra=0 / bframes=16 / b_pyramid=2 / b_adapt=2 / b_bias=0 / direct=3 / weightb=1 / open_gop=0 / weightp=2 / keyint=500 / keyint_min=50 / scenecut=40 / intra_refresh=0 / rc_lookahead=60 / rc=crf / mbtree=1 / crf=20.0 / qcomp=0.60 / qpmin=0 / qpmax=69 / qpstep=4 / vbv_maxrate=62500 / vbv_bufsize=78125 / crf_max=0.0 / nal_hrd=none / filler=0 / ip_ratio=1.40 / aq=1:1.00
    Default                     : Yes
    Forced                      : Yes
    Color range                 : Limited
    Color primaries             : BT.709
    Transfer characteristics    : BT.709
    Matrix coefficients         : BT.709

    Audio #1
    ID                          : 2
    Format                      : AC-3
    Format/Info                 : Audio Coding 3
    Commercial name             : Dolby Digital
    Codec ID                    : A_AC3
    Duration                    : 1 h 28 min
    Bit rate mode               : Constant
    Bit rate                    : 448 kb/s
    Channel(s)                  : 6 channels
    Channel layout              : L R C LFE Ls Rs
    Sampling rate               : 48.0 kHz
    Frame rate                  : 31.250 FPS (1536 SPF)
    Bit depth                   : 16 bits
    Compression mode            : Lossy
    Stream size                 : 282 MiB (7%)
    Title                       : Español Latino [CinemaniaHDD]
    Language                    : Spanish
    Service kind                : Complete Main
    Default                     : Yes
    Forced                      : Yes

    Audio #2
    ID                          : 3
    Format                      : DTS
    Format/Info                 : Digital Theater Systems
    Codec ID                    : A_DTS
    Duration                    : 1 h 27 min
    Bit rate mode               : Constant
    Bit rate                    : 1 509 kb/s
    Channel(s)                  : 6 channels
    Channel layout              : C L R Ls Rs LFE
    Sampling rate               : 48.0 kHz
    Frame rate                  : 93.750 FPS (512 SPF)
    Bit depth                   : 24 bits
    Compression mode            : Lossy
    Stream size                 : 950 MiB (24%)
    Title                       : Ingles [CinemaniaHDD]
    Language                    : English
    Default                     : No
    Forced                      : No

    Text #1
    ID                          : 4
    Format                      : UTF-8
    Codec ID                    : S_TEXT/UTF8
    Codec ID/Info               : UTF-8 Plain Text
    Duration                    : 23 min 46 s
    Bit rate                    : 0 b/s
    Count of elements           : 2
    Stream size                 : 76.0 Bytes (0%)
    Title                       : Forzados-SRT [CinemaniaHDD]
    Language                    : Spanish
    Default                     : Yes
    Forced                      : No

    Text #2
    ID                          : 5
    Format                      : UTF-8
    Codec ID                    : S_TEXT/UTF8
    Codec ID/Info               : UTF-8 Plain Text
    Duration                    : 1 h 21 min
    Bit rate                    : 40 b/s
    Count of elements           : 712
    Stream size                 : 24.1 KiB (0%)
    Title                       : Español-SRT [CinemaniaHDD]
    Language                    : Spanish
    Default                     : No
    Forced                      : No

    Menu
    00:00:00.000                : en:Chapter 01
    00:06:53.240                : en:Chapter 02
    00:15:19.360                : en:Chapter 03
    00:22:50.400                : en:Chapter 04
    00:30:04.720                : en:Chapter 05
    00:36:16.560                : en:Chapter 06
    00:42:57.720                : en:Chapter 07
    00:51:06.840                : en:Chapter 08
    00:58:39.520                : en:Chapter 09
    01:08:07.200                : en:Chapter 10
    01:15:14.240                : en:Chapter 11
    01:22:20.400                : en:Chapter 12

  • Peso: 3.89 GiB

Sinopsis

Descargar In Full Bloom (2019) Full HD 1080p Latino. En el Tokio de la posguerra, un campeón de boxeo invicto, Masahiro, entrena para enfrentarse a Clint, un estadounidense que le ha retado. Ambos llevarán a cabo un viaje que pondrá a prueba los límites del espíritu humano.

Ficha técnica

Video trailer de la película

Enlaces de descarga

Rip de Bluray

Descargar In Full Bloom (2019) Full HD 1080p Latino




Aportes de DPeliculasHDmega la pass es:dpeliculashdmega.org Aportes de CinemaniaHD la pass es:cinemaniahdd.com

Películas relacionadas

  • Wire Room (2022) HD 1080p Latino

    Wire Room (2022) HD 1080p Latino

    2022
    Wire Room (2022) HD 1080p Latino

    1h 37m 2022

    Descargar Wire Room (2022) HD 1080p Latino. Mientras está de servicio en la sala de cables, un agente...

    Director: Matt Eskandari

    Género: Acción

    Actores: Texas Battle

  • Wire Room (2022) PLACEBO Full HD 1080p Latino

    Wire Room (2022) PLACEBO Full HD 1080p Latino

    2022
    Wire Room (2022) PLACEBO Full HD 1080p Latino

    1h 37m 2022

    Descargar Wire Room (2022) PLACEBO Full HD 1080p Latino. Mientras está de servicio en la sala de cables,...

    Director: Matt Eskandari

    Género: Acción

    Actores: Texas Battle

  • Wire Room (2022) REMUX 1080p Latino

    Wire Room (2022) REMUX 1080p Latino

    2022
    Wire Room (2022) REMUX 1080p Latino

    1h 37m 2022

    Descargar Wire Room (2022) REMUX 1080p Latino. Mientras está de servicio en la sala de cables, un agente...

    Director: Matt Eskandari

    Género: Acción

    Actores: Texas Battle

descargar In Full Bloom (2019) Full HD 1080p Latino Full 1080p 1080p gratis, In Full Bloom (2019) Full HD 1080p Latino Full 1080p mega 1 link, In Full Bloom (2019) Full HD 1080p Latino Full 1080p pelicula completa, descargar In Full Bloom (2019) Full HD 1080p Latino Full 1080p gratis en mega.

In Full Bloom (2019) Full HD 1080p Latino pelicula full hd, In Full Bloom (2019) Full HD 1080p Latino mega latino, In Full Bloom (2019) Full HD 1080p Latino 4k latino, In Full Bloom (2019) Full HD 1080p Latino pelicula completa, In Full Bloom (2019) Full HD 1080p Latino descargar gratis, descargar In Full Bloom (2019) Full HD 1080p Latino pelicula latino, In Full Bloom (2019) Full HD 1080p Latino 1 link mega, In Full Bloom (2019) Full HD 1080p Latino 1 link google drive, In Full Bloom (2019) Full HD 1080p Latino hd 1080p latino.
Comentarios 0