×

¿Problemas para descargar con Mozilla, EDGE? Deshabilita la opción "Abrir vinculos en una pestaña nueva" tal como lo muestra ésta imagen.

In Fabric: Vistiendo La Muerte (2018) HD 1080p Latino

308 vistas

Información de In Fabric: Vistiendo La Muerte (2018) HD 1080p Latino

Datos de la película

  • Calidad: 1080p
  • Audio: Se especifica abajo de la Sinopsis
  • Subtitulos: Español Latino SRT - Ingles SRT
  • Resolución: 1920x804p
  • Formato: MKV
  • Codec: H.264
  • Encoder: Melkor
  • Mediainfo: Clic para Mostrar Datos Ver
  • Vistiendo La Muerte (2018) HD 1080p Latino.mkv
    Format                      : Matroska
    Format version              : Version 4
    File size                   : 3.77 GiB
    Duration                    : 1 h 58 min
    Overall bit rate            : 4 552 kb/s
    Movie name                  : In Fabric (2018) CinemaniaHDD.Net
    Encoded date                : UTC 2020-10-20 03:30:06
    Writing application         : mkvmerge v51.0.0 ('I Wish') 64-bit
    Writing library             : libebml v1.4.0 + libmatroska v1.6.2
    Attachments                 : CINEMANIAHD.png

    Video
    ID                          : 1
    Format                      : AVC
    Format/Info                 : Advanced Video Codec
    Format profile              : High@L4.1
    Format settings             : CABAC / 5 Ref Frames
    Format settings, CABAC      : Yes
    Format settings, Reference  : 5 frames
    Codec ID                    : V_MPEG4/ISO/AVC
    Duration                    : 1 h 58 min
    Bit rate                    : 3 500 kb/s
    Width                       : 1 920 pixels
    Height                      : 804 pixels
    Display aspect ratio        : 2.40:1
    Frame rate mode             : Constant
    Frame rate                  : 24.000 FPS
    Color space                 : YUV
    Chroma subsampling          : 4:2:0
    Bit depth                   : 8 bits
    Scan type                   : Progressive
    Bits/(Pixel*Frame)          : 0.094
    Stream size                 : 2.87 GiB (76%)
    Title                       : HD1080p [CinemaniaHDD]
    Writing library             : x264 core 157 r2935 545de2f
    Encoding settings           : cabac=1 / ref=5 / deblock=1:-1:-1 / analyse=0x3:0x113 / me=hex / subme=8 / psy=1 / psy_rd=1.00:0.15 / mixed_ref=1 / me_range=16 / chroma_me=1 / trellis=2 / 8x8dct=1 / cqm=0 / deadzone=21,11 / fast_pskip=1 / chroma_qp_offset=-3 / threads=24 / lookahead_threads=4 / sliced_threads=0 / nr=0 / decimate=1 / interlaced=0 / bluray_compat=0 / constrained_intra=0 / bframes=3 / b_pyramid=2 / b_adapt=1 / b_bias=0 / direct=3 / weightb=1 / open_gop=0 / weightp=2 / keyint=240 / keyint_min=24 / scenecut=40 / intra_refresh=0 / rc_lookahead=50 / rc=abr / mbtree=1 / bitrate=3500 / ratetol=1.0 / qcomp=0.60 / qpmin=0 / qpmax=69 / qpstep=4 / vbv_maxrate=62500 / vbv_bufsize=78125 / nal_hrd=none / filler=0 / ip_ratio=1.40 / aq=1:1.00
    Default                     : Yes
    Forced                      : No
    Color range                 : Limited
    Color primaries             : BT.709
    Transfer characteristics    : BT.709
    Matrix coefficients         : BT.709

    Audio #1
    ID                          : 2
    Format                      : AC-3
    Format/Info                 : Audio Coding 3
    Commercial name             : Dolby Digital
    Codec ID                    : A_AC3
    Duration                    : 1 h 58 min
    Bit rate mode               : Constant
    Bit rate                    : 640 kb/s
    Channel(s)                  : 6 channels
    Channel layout              : L R C LFE Ls Rs
    Sampling rate               : 48.0 kHz
    Frame rate                  : 31.250 FPS (1536 SPF)
    Compression mode            : Lossy
    Delay relative to video     : -5 ms
    Stream size                 : 543 MiB (14%)
    Title                       : Español Latino [CinemaniaHDD]
    Language                    : Spanish
    Service kind                : Complete Main
    Default                     : Yes
    Forced                      : No

    Audio #2
    ID                          : 3
    Format                      : AC-3
    Format/Info                 : Audio Coding 3
    Commercial name             : Dolby Digital
    Codec ID                    : A_AC3
    Duration                    : 1 h 58 min
    Bit rate mode               : Constant
    Bit rate                    : 448 kb/s
    Channel(s)                  : 6 channels
    Channel layout              : L R C LFE Ls Rs
    Sampling rate               : 48.0 kHz
    Frame rate                  : 31.250 FPS (1536 SPF)
    Compression mode            : Lossy
    Delay relative to video     : -5 ms
    Stream size                 : 380 MiB (10%)
    Title                       : Ingles [CinemaniaHDD]
    Language                    : English
    Service kind                : Complete Main
    Default                     : No
    Forced                      : No

    Text #1
    ID                          : 4
    Format                      : UTF-8
    Codec ID                    : S_TEXT/UTF8
    Codec ID/Info               : UTF-8 Plain Text
    Duration                    : 1 h 50 min
    Bit rate                    : 1 b/s
    Count of elements           : 41
    Stream size                 : 1.18 KiB (0%)
    Title                       : Forzados-SRT [CinemaniaHDD]
    Language                    : Spanish
    Default                     : Yes
    Forced                      : No

    Text #2
    ID                          : 5
    Format                      : UTF-8
    Codec ID                    : S_TEXT/UTF8
    Codec ID/Info               : UTF-8 Plain Text
    Duration                    : 1 h 50 min
    Bit rate                    : 55 b/s
    Count of elements           : 1123
    Stream size                 : 44.5 KiB (0%)
    Title                       : Español-SRT [CinemaniaHDD]
    Language                    : Spanish
    Default                     : No
    Forced                      : No

    Text #3
    ID                          : 6
    Format                      : UTF-8
    Codec ID                    : S_TEXT/UTF8
    Codec ID/Info               : UTF-8 Plain Text
    Duration                    : 1 h 54 min
    Bit rate                    : 46 b/s
    Count of elements           : 1005
    Stream size                 : 39.3 KiB (0%)
    Title                       : Ingles-SRT [CinemaniaHDD]
    Language                    : English
    Default                     : No
    Forced                      : No

    Menu
    00:00:00.000                : en:Chapter 01
    00:07:20.583                : en:Chapter 02
    00:17:52.958                : en:Chapter 03
    00:24:31.625                : en:Chapter 04
    00:37:39.875                : en:Chapter 05
    00:57:11.750                : en:Chapter 06
    01:05:46.916                : en:Chapter 07
    01:14:55.625                : en:Chapter 08
    01:27:47.791                : en:Chapter 09
    01:39:48.333                : en:Chapter 10
    01:46:39.333                : en:Chapter 11
    01:53:46.958                : en:Chapter 12

  • Peso: 3.77 GiB

Sinopsis

Descargar In Fabric: Vistiendo La Muerte (2018) HD 1080p Latino. Rebajas en un gran almacén inglés, Sheila ronda estanterías, sopesa prendas y, de repente, un vestido rojo sangre de seda la hipnotiza. Ya no hay nada que ella quiera salvo ese vestido, nada salvo acariciarlo, tantearlo, adorarlo… Parece que pesa una maldición sobre cada persona que ha poseído esa prenda fetiche.

Español Latino AC3 5.1 WebDL  – Ingles AC3 5.1 Bluray

Ficha técnica

Video trailer de la película

Enlaces de descarga

Rip de Bluray

Descargar In Fabric: Vistiendo La Muerte (2018) HD 1080p Latino




Aportes de DPeliculasHDmega la pass es:dpeliculashdmega.org Aportes de CinemaniaHD la pass es:cinemaniahdd.com
Guardado en : Comedia , Fantasía , HD 1080p , Terror

Películas relacionadas

descargar In Fabric: Vistiendo La Muerte (2018) HD 1080p Latino 1080p 1080p gratis, In Fabric: Vistiendo La Muerte (2018) HD 1080p Latino 1080p mega 1 link, In Fabric: Vistiendo La Muerte (2018) HD 1080p Latino 1080p pelicula completa, descargar In Fabric: Vistiendo La Muerte (2018) HD 1080p Latino 1080p gratis en mega.

In Fabric: Vistiendo La Muerte (2018) HD 1080p Latino pelicula full hd, In Fabric: Vistiendo La Muerte (2018) HD 1080p Latino mega latino, In Fabric: Vistiendo La Muerte (2018) HD 1080p Latino 4k latino, In Fabric: Vistiendo La Muerte (2018) HD 1080p Latino pelicula completa, In Fabric: Vistiendo La Muerte (2018) HD 1080p Latino descargar gratis, descargar In Fabric: Vistiendo La Muerte (2018) HD 1080p Latino pelicula latino, In Fabric: Vistiendo La Muerte (2018) HD 1080p Latino 1 link mega, In Fabric: Vistiendo La Muerte (2018) HD 1080p Latino 1 link google drive, In Fabric: Vistiendo La Muerte (2018) HD 1080p Latino hd 1080p latino.
Comentarios 0