×

¿Problemas para descargar con Mozilla, EDGE? Deshabilita la opción "Abrir vinculos en una pestaña nueva" tal como lo muestra ésta imagen.

Encontrando Tu Voz… (2013) REMUX 1080p Latino

285 vistas

Información de Encontrando Tu Voz… (2013) REMUX 1080p Latino

Datos de la película

  • Calidad: Full 1080p
  • Audio: Español Latino AC3 5.1 BLURAY - Ingles DTS 5.1 BLURAY
  • Subtitulos: Español Latino PGS - Ingles PGS
  • Resolución: 1920x1080p
  • Formato: MKV
  • Codec: H.264
  • Encoder: CinefiloCool
  • Mediainfo: Clic para Mostrar Datos Ver
  • Encontrando Tu Voz... (2013) REMUX 1080p Latino-CMHDD.mkv
    Format                      : Matroska
    Format version              : Version 4
    File size                   : 18.0 GiB
    Duration                    : 1 h 32 min
    Overall bit rate mode       : Variable
    Overall bit rate            : 27.8 Mb/s
    Movie name                  : In A World... (2013) CinemaniaHDD.Net
    Encoded date                : UTC 2022-02-14 21:48:49
    Writing application         : mkvmerge v56.1.0 ('My Friend') 64-bit
    Writing library             : libebml v1.4.2 + libmatroska v1.6.4
    Attachments                 : CINEMANIAHD.png

    Video
    ID                          : 1
    ID in the original source m : 4113 (0x1011)
    Format                      : AVC
    Format/Info                 : Advanced Video Codec
    Format profile              : High@L4.1
    Format settings             : CABAC / 2 Ref Frames
    Format settings, CABAC      : Yes
    Format settings, Reference  : 2 frames
    Format settings, GOP        : M=1, N=10
    Codec ID                    : V_MPEG4/ISO/AVC
    Duration                    : 1 h 32 min
    Bit rate mode               : Variable
    Bit rate                    : 24.9 Mb/s
    Width                       : 1 920 pixels
    Height                      : 1 080 pixels
    Display aspect ratio        : 16:9
    Frame rate mode             : Constant
    Frame rate                  : 23.976 (24000/1001) FPS
    Color space                 : YUV
    Chroma subsampling          : 4:2:0
    Bit depth                   : 8 bits
    Scan type                   : Progressive
    Bits/(Pixel*Frame)          : 0.502
    Stream size                 : 16.2 GiB (90%)
    Title                       : REMUX HD1080p [CinemaniaHDD]
    Default                     : Yes
    Forced                      : Yes
    Original source medium      : Blu-ray

    Audio #1
    ID                          : 2
    ID in the original source m : 4354 (0x1102)
    Format                      : AC-3
    Format/Info                 : Audio Coding 3
    Commercial name             : Dolby Digital
    Codec ID                    : A_AC3
    Duration                    : 1 h 32 min
    Bit rate mode               : Constant
    Bit rate                    : 640 kb/s
    Channel(s)                  : 6 channels
    Channel layout              : L R C LFE Ls Rs
    Sampling rate               : 48.0 kHz
    Frame rate                  : 31.250 FPS (1536 SPF)
    Compression mode            : Lossy
    Stream size                 : 426 MiB (2%)
    Title                       : Español Latino [CinemaniaHDD]
    Language                    : Spanish
    Service kind                : Complete Main
    Default                     : Yes
    Forced                      : Yes
    Original source medium      : Blu-ray

    Audio #2
    ID                          : 3
    ID in the original source m : 4352 (0x1100)
    Format                      : DTS XLL
    Format/Info                 : Digital Theater Systems
    Commercial name             : DTS-HD Master Audio
    Codec ID                    : A_DTS
    Duration                    : 1 h 32 min
    Bit rate mode               : Variable
    Bit rate                    : 2 154 kb/s
    Channel(s)                  : 6 channels
    Channel layout              : C L R Ls Rs LFE
    Sampling rate               : 48.0 kHz
    Frame rate                  : 93.750 FPS (512 SPF)
    Bit depth                   : 16 bits
    Compression mode            : Lossless
    Stream size                 : 1.40 GiB (8%)
    Title                       : Ingles [CinemaniaHDD]
    Language                    : English
    Default                     : No
    Forced                      : No
    Original source medium      : Blu-ray

    Text #1
    ID                          : 4
    ID in the original source m : 4611 (0x1203)
    Format                      : PGS
    Muxing mode                 : zlib
    Codec ID                    : S_HDMV/PGS
    Codec ID/Info               : Picture based subtitle format used on BDs/HD-DVDs
    Duration                    : 1 h 28 min
    Bit rate                    : 51.6 kb/s
    Count of elements           : 3192
    Stream size                 : 32.6 MiB (0%)
    Title                       : Español-PGS [CinemaniaHDD]
    Language                    : Spanish
    Default                     : No
    Forced                      : No
    Original source medium      : Blu-ray

    Text #2
    ID                          : 5
    ID in the original source m : 4609 (0x1201)
    Format                      : PGS
    Muxing mode                 : zlib
    Codec ID                    : S_HDMV/PGS
    Codec ID/Info               : Picture based subtitle format used on BDs/HD-DVDs
    Duration                    : 1 h 28 min
    Bit rate                    : 57.2 kb/s
    Count of elements           : 3162
    Stream size                 : 36.2 MiB (0%)
    Title                       : Ingles-PGS [CinemaniaHDD]
    Language                    : English
    Default                     : No
    Forced                      : No
    Original source medium      : Blu-ray

    Text #3
    ID                          : 6
    Format                      : UTF-8
    Codec ID                    : S_TEXT/UTF8
    Codec ID/Info               : UTF-8 Plain Text
    Duration                    : 1 h 26 min
    Bit rate                    : 0 b/s
    Count of elements           : 11
    Stream size                 : 416 Bytes (0%)
    Title                       : Forzados-SRT [CinemaniaHDD]
    Language                    : Spanish
    Default                     : Yes
    Forced                      : Yes

    Text #4
    ID                          : 7
    Format                      : UTF-8
    Codec ID                    : S_TEXT/UTF8
    Codec ID/Info               : UTF-8 Plain Text
    Duration                    : 1 h 28 min
    Bit rate                    : 84 b/s
    Count of elements           : 1602
    Stream size                 : 54.7 KiB (0%)
    Title                       : Español-SRT [CinemaniaHDD]
    Language                    : Spanish
    Default                     : No
    Forced                      : No

    Menu
    00:00:00.000                : Chapter 01
    00:10:13.738                : Chapter 02
    00:16:15.474                : Chapter 03
    00:21:09.184                : Chapter 04
    00:25:32.572                : Chapter 05
    00:30:58.565                : Chapter 06
    00:37:32.750                : Chapter 07
    00:43:17.761                : Chapter 08
    00:47:28.345                : Chapter 09
    00:53:36.796                : Chapter 10
    01:01:49.706                : Chapter 11
    01:05:59.455                : Chapter 12
    01:09:57.526                : Chapter 13
    01:14:01.353                : Chapter 14
    01:18:09.142                : Chapter 15
    01:22:22.312                : Chapter 16

  • Peso: 18.0 GiB

Sinopsis

Descargar Encontrando Tu Voz… (2013) REMUX 1080p Latino. Una entrenadora vocal es motivada por su padre, el rey de las voces en off de los tráilers, para convertir a la joven en una estrella del medio.

Disponible Solo Para VIP!!!

Ficha técnica

  • Titulo original: In a World...
  • Fecha de lanzamiento: 09-08-2013 (United Kingdom, United States of America)
  • Director: Bruce Resnik, Lake Bell
  • Género: Comedia, Remux

Video trailer de la película

Enlaces de descarga

Rip de Bluray

Descargar Encontrando Tu Voz… (2013) REMUX 1080p Latino


Aportes de DPeliculasHDmega la pass es:dpeliculashdmega.org Aportes de CinemaniaHD la pass es:cinemaniahdd.com
Guardado en : Comedia , Remux

Películas relacionadas

descargar Encontrando Tu Voz… (2013) REMUX 1080p Latino Full 1080p 1080p gratis, Encontrando Tu Voz… (2013) REMUX 1080p Latino Full 1080p mega 1 link, Encontrando Tu Voz… (2013) REMUX 1080p Latino Full 1080p pelicula completa, descargar Encontrando Tu Voz… (2013) REMUX 1080p Latino Full 1080p gratis en mega.

Encontrando Tu Voz… (2013) REMUX 1080p Latino pelicula full hd, Encontrando Tu Voz… (2013) REMUX 1080p Latino mega latino, Encontrando Tu Voz… (2013) REMUX 1080p Latino 4k latino, Encontrando Tu Voz… (2013) REMUX 1080p Latino pelicula completa, Encontrando Tu Voz… (2013) REMUX 1080p Latino descargar gratis, descargar Encontrando Tu Voz… (2013) REMUX 1080p Latino pelicula latino, Encontrando Tu Voz… (2013) REMUX 1080p Latino 1 link mega, Encontrando Tu Voz… (2013) REMUX 1080p Latino 1 link google drive, Encontrando Tu Voz… (2013) REMUX 1080p Latino hd 1080p latino.
Comentarios 0