×

¿Problemas para descargar con Mozilla, EDGE? Deshabilita la opción "Abrir vinculos en una pestaña nueva" tal como lo muestra ésta imagen.

Encontrando Tu Voz… (2013) Full HD 1080p Latino

269 vistas

Información de Encontrando Tu Voz… (2013) Full HD 1080p Latino

Datos de la película

  • Calidad: Full 1080p
  • Audio: Español Latino AC3 5.1 BLURAY - Ingles DTS 5.1 BLURAY
  • Subtitulos: Español Latino PGS - Ingles PGS
  • Resolución: 1920x1080p
  • Formato: MKV
  • Codec: H.264
  • Encoder: CinefiloCool
  • Mediainfo: Clic para Mostrar Datos Ver
  • Encontrando Tu Voz... (2013) Full HD 1080p Latino-CMHDD.mkv
    Format                      : Matroska
    Format version              : Version 4
    File size                   : 3.11 GiB
    Duration                    : 1 h 32 min
    Overall bit rate            : 4 783 kb/s
    Movie name                  : In A World... (2013) CinemaniaHDD.Net
    Encoded date                : UTC 2023-04-05 22:31:22
    Writing application         : mkvmerge v56.1.0 ('My Friend') 64-bit
    Writing library             : libebml v1.4.2 + libmatroska v1.6.4
    Attachments                 : CINEMANIAHD.png

    Video
    ID                          : 1
    Format                      : AVC
    Format/Info                 : Advanced Video Codec
    Format profile              : High@L4.1
    Format settings             : CABAC / 4 Ref Frames
    Format settings, CABAC      : Yes
    Format settings, Reference  : 4 frames
    Codec ID                    : V_MPEG4/ISO/AVC
    Duration                    : 1 h 32 min
    Bit rate                    : 2 600 kb/s
    Width                       : 1 920 pixels
    Height                      : 1 080 pixels
    Display aspect ratio        : 16:9
    Frame rate mode             : Constant
    Frame rate                  : 23.976 (24000/1001) FPS
    Color space                 : YUV
    Chroma subsampling          : 4:2:0
    Bit depth                   : 8 bits
    Scan type                   : Progressive
    Bits/(Pixel*Frame)          : 0.052
    Stream size                 : 1.69 GiB (54%)
    Title                       : Full HD1080p [CinemaniaHDD]
    Writing library             : x264 core 163 r3059 b684ebe0
    Encoding settings           : cabac=1 / ref=4 / deblock=1:0:0 / analyse=0x3:0x133 / me=tesa / subme=11 / psy=1 / psy_rd=1.00:0.00 / mixed_ref=1 / me_range=24 / chroma_me=1 / trellis=2 / 8x8dct=1 / cqm=0 / deadzone=21,11 / fast_pskip=0 / chroma_qp_offset=-2 / threads=24 / lookahead_threads=6 / sliced_threads=0 / nr=0 / decimate=1 / interlaced=0 / bluray_compat=0 / constrained_intra=0 / bframes=16 / b_pyramid=2 / b_adapt=2 / b_bias=0 / direct=3 / weightb=1 / open_gop=0 / weightp=2 / keyint=240 / keyint_min=24 / scenecut=40 / intra_refresh=0 / rc_lookahead=60 / rc=crf / mbtree=1 / crf=20.0 / qcomp=0.60 / qpmin=0 / qpmax=69 / qpstep=4 / vbv_maxrate=62500 / vbv_bufsize=78125 / crf_max=0.0 / nal_hrd=none / filler=0 / ip_ratio=1.40 / aq=1:1.00
    Default                     : Yes
    Forced                      : Yes
    Color range                 : Limited
    Color primaries             : BT.709
    Transfer characteristics    : BT.709
    Matrix coefficients         : BT.709

    Audio #1
    ID                          : 2
    ID in the original source m : 4354 (0x1102)
    Format                      : AC-3
    Format/Info                 : Audio Coding 3
    Commercial name             : Dolby Digital
    Codec ID                    : A_AC3
    Duration                    : 1 h 32 min
    Bit rate mode               : Constant
    Bit rate                    : 640 kb/s
    Channel(s)                  : 6 channels
    Channel layout              : L R C LFE Ls Rs
    Sampling rate               : 48.0 kHz
    Frame rate                  : 31.250 FPS (1536 SPF)
    Compression mode            : Lossy
    Stream size                 : 426 MiB (13%)
    Title                       : Español Latino [CinemaniaHDD]
    Language                    : Spanish
    Service kind                : Complete Main
    Default                     : Yes
    Forced                      : Yes
    Original source medium      : Blu-ray

    Audio #2
    ID                          : 3
    Format                      : DTS
    Format/Info                 : Digital Theater Systems
    Codec ID                    : A_DTS
    Duration                    : 1 h 32 min
    Bit rate mode               : Constant
    Bit rate                    : 1 509 kb/s
    Channel(s)                  : 6 channels
    Channel layout              : C L R Ls Rs LFE
    Sampling rate               : 48.0 kHz
    Frame rate                  : 93.750 FPS (512 SPF)
    Bit depth                   : 24 bits
    Compression mode            : Lossy
    Stream size                 : 1 003 MiB (32%)
    Title                       : Ingles [CinemaniaHDD]
    Language                    : English
    Default                     : No
    Forced                      : No

    Text #1
    ID                          : 4
    ID in the original source m : 4611 (0x1203)
    Format                      : PGS
    Muxing mode                 : zlib
    Codec ID                    : S_HDMV/PGS
    Codec ID/Info               : Picture based subtitle format used on BDs/HD-DVDs
    Duration                    : 1 h 28 min
    Bit rate                    : 51.6 kb/s
    Count of elements           : 3192
    Stream size                 : 32.6 MiB (1%)
    Title                       : Español-PGS [CinemaniaHDD]
    Language                    : Spanish
    Default                     : No
    Forced                      : No
    Original source medium      : Blu-ray

    Text #2
    ID                          : 5
    ID in the original source m : 4609 (0x1201)
    Format                      : PGS
    Muxing mode                 : zlib
    Codec ID                    : S_HDMV/PGS
    Codec ID/Info               : Picture based subtitle format used on BDs/HD-DVDs
    Duration                    : 1 h 28 min
    Bit rate                    : 57.2 kb/s
    Count of elements           : 3162
    Stream size                 : 36.2 MiB (1%)
    Title                       : Ingles-PGS [CinemaniaHDD]
    Language                    : English
    Default                     : No
    Forced                      : No
    Original source medium      : Blu-ray

    Text #3
    ID                          : 6
    Format                      : UTF-8
    Codec ID                    : S_TEXT/UTF8
    Codec ID/Info               : UTF-8 Plain Text
    Duration                    : 1 h 26 min
    Bit rate                    : 0 b/s
    Count of elements           : 11
    Stream size                 : 416 Bytes (0%)
    Title                       : Forzados-SRT [CinemaniaHDD]
    Language                    : Spanish
    Default                     : Yes
    Forced                      : Yes

    Text #4
    ID                          : 7
    Format                      : UTF-8
    Codec ID                    : S_TEXT/UTF8
    Codec ID/Info               : UTF-8 Plain Text
    Duration                    : 1 h 28 min
    Bit rate                    : 84 b/s
    Count of elements           : 1602
    Stream size                 : 54.7 KiB (0%)
    Title                       : Español-SRT [CinemaniaHDD]
    Language                    : Spanish
    Default                     : No
    Forced                      : No

    Menu
    00:00:00.000                : Chapter 01
    00:10:13.738                : Chapter 02
    00:16:15.474                : Chapter 03
    00:21:09.184                : Chapter 04
    00:25:32.572                : Chapter 05
    00:30:58.565                : Chapter 06
    00:37:32.750                : Chapter 07
    00:43:17.761                : Chapter 08
    00:47:28.345                : Chapter 09
    00:53:36.796                : Chapter 10
    01:01:49.706                : Chapter 11
    01:05:59.455                : Chapter 12
    01:09:57.526                : Chapter 13
    01:14:01.353                : Chapter 14
    01:18:09.142                : Chapter 15
    01:22:22.312                : Chapter 16

  • Peso: 3.11 GiB

Sinopsis

Descargar Encontrando Tu Voz… (2013) Full HD 1080p Latino. Una entrenadora vocal es motivada por su padre, el rey de las voces en off de los tráilers, para convertir a la joven en una estrella del medio.

Ficha técnica

Video trailer de la película

Enlaces de descarga

Rip de Bluray

Descargar Encontrando Tu Voz… (2013) Full HD 1080p Latino




Aportes de DPeliculasHDmega la pass es:dpeliculashdmega.org Aportes de CinemaniaHD la pass es:cinemaniahdd.com Aportes recientes:cinemaniahdd.net

Películas relacionadas

  • Un Heroe Anonimo (2024) Full HD 1080p Latino-CMHDD

    Un Heroe Anonimo (2024) Full HD 1080p Latino-CMHDD

    2024
    Un Heroe Anonimo (2024) Full HD 1080p Latino-CMHDD

    1h 53m 2024

    Descargar Un Heroe Anonimo (2024) Full HD 1080p Latino-CMHDD Basada en una extraordinaria historia real,...

    Director: Richard Ramsey

    Género: Drama

    Actores: Vin Morreale Jr

  • Scary Movie 5 (2013) REMUX 1080p Latino – CMHDD

    Scary Movie 5 (2013) REMUX 1080p Latino – CMHDD

    2013
    Scary Movie 5 (2013) REMUX 1080p Latino – CMHDD

    1h 28m 2013

    Los felizmente casados Dan y Jody empiezan a observar algunos fenómenos extraños en su casa tras volver...

    Director: Tim Fitzgerald

    Género: Comedia

    Actores: Zoe Pessin

  • Scary Movie 4 (2006) REMUX 1080p Latino – CMHDD

    Scary Movie 4 (2006) REMUX 1080p Latino – CMHDD

    2006
    Scary Movie 4 (2006) REMUX 1080p Latino – CMHDD

    1h 29m 2006

    Una nueva entrega de la franquicia que parodia los últimos títulos del cine americano. Esta vez, la...

    Director: Steve Eathorne

    Género: Comedia

    Actores: YoungBloodZ

  • Scary Movie 3 (2003) REMUX 1080p Latino – CMHDD

    Scary Movie 3 (2003) REMUX 1080p Latino – CMHDD

    2003
    Scary Movie 3 (2003) REMUX 1080p Latino – CMHDD

    1h 25m 2003

    Después de haberlo pasado fatal -eso siempre según se mire- en las dos anteriores entregas, Cindy Campbell...

    Director: Wendy L. Adjoury

    Género: Comedia

    Actores: William S. Taylor

descargar Encontrando Tu Voz… (2013) Full HD 1080p Latino Full 1080p 1080p gratis, Encontrando Tu Voz… (2013) Full HD 1080p Latino Full 1080p mega 1 link, Encontrando Tu Voz… (2013) Full HD 1080p Latino Full 1080p pelicula completa, descargar Encontrando Tu Voz… (2013) Full HD 1080p Latino Full 1080p gratis en mega.

Encontrando Tu Voz… (2013) Full HD 1080p Latino pelicula full hd, Encontrando Tu Voz… (2013) Full HD 1080p Latino mega latino, Encontrando Tu Voz… (2013) Full HD 1080p Latino 4k latino, Encontrando Tu Voz… (2013) Full HD 1080p Latino pelicula completa, Encontrando Tu Voz… (2013) Full HD 1080p Latino descargar gratis, descargar Encontrando Tu Voz… (2013) Full HD 1080p Latino pelicula latino, Encontrando Tu Voz… (2013) Full HD 1080p Latino 1 link mega, Encontrando Tu Voz… (2013) Full HD 1080p Latino 1 link google drive, Encontrando Tu Voz… (2013) Full HD 1080p Latino hd 1080p latino.
Comentarios 0