×

¿Problemas para descargar con Mozilla, EDGE? Deshabilita la opción "Abrir vinculos en una pestaña nueva" tal como lo muestra ésta imagen.

In a Relationship (2018) WEB-DL 1080p Latino

747 vistas

Información de In a Relationship (2018) WEB-DL 1080p Latino

Datos de la película

  • Calidad: WEBDL
  • Audio: Español Latino AC3 2.0 Capturado - Ingles AC3 5.1 WEBDL
  • Subtitulos: No
  • Resolución: 1920x1032
  • Formato: MKV
  • Codec: H.264
  • Encoder: cinemaniahdd
  • Mediainfo: Clic para Mostrar Datos Ver
  • In A Relationship (2018) WEB-DL 1080p Latino.mkv
    Format                      : Matroska
    Format version              : Version 4
    File size                   : 3.71 GiB
    Duration                    : 1 h 31 min
    Overall bit rate            : 5 786 kb/s
    Movie name                  : In A Relationship (2018) - CinemaniaHDD.Net
    Encoded date                : UTC 2020-02-26 22:48:23
    Writing application         : mkvmerge v42.0.0 ('Overtime') 64-bit
    Writing library             : libebml v1.3.10 + libmatroska v1.5.2

    Video
    ID                          : 1
    Format                      : AVC
    Format/Info                 : Advanced Video Codec
    Format profile              : High@L4
    Format settings             : CABAC / 4 Ref Frames
    Format settings, CABAC      : Yes
    Format settings, ReFrames   : 4 frames
    Codec ID                    : V_MPEG4/ISO/AVC
    Duration                    : 1 h 31 min
    Bit rate                    : 5 144 kb/s
    Width                       : 1 920 pixels
    Height                      : 1 032 pixels
    Display aspect ratio        : 1.85:1
    Frame rate mode             : Constant
    Frame rate                  : 23.976 (23976/1000) FPS
    Color space                 : YUV
    Chroma subsampling          : 4:2:0
    Bit depth                   : 8 bits
    Scan type                   : Progressive
    Bits/(Pixel*Frame)          : 0.108
    Stream size                 : 3.30 GiB (89%)
    Title                       : CinemaniaHDD.Net
    Language                    : English
    Default                     : Yes
    Forced                      : No
    Color range                 : Limited
    Color primaries             : BT.709
    Transfer characteristics    : BT.709
    Matrix coefficients         : BT.709

    Audio #1
    ID                          : 2
    Format                      : AC-3
    Format/Info                 : Audio Coding 3
    Commercial name             : Dolby Digital
    Codec ID                    : A_AC3
    Duration                    : 1 h 31 min
    Bit rate mode               : Constant
    Bit rate                    : 256 kb/s
    Channel(s)                  : 2 channels
    Channel layout              : L R
    Sampling rate               : 44.1 kHz
    Frame rate                  : 28.711 FPS (1536 SPF)
    Bit depth                   : 16 bits
    Compression mode            : Lossy
    Delay relative to video     : -42 ms
    Stream size                 : 168 MiB (4%)
    Title                       : Español latino [CinemaniaHDD]
    Language                    : Spanish
    Service kind                : Complete Main
    Default                     : Yes
    Forced                      : No

    Audio #2
    ID                          : 3
    Format                      : AC-3
    Format/Info                 : Audio Coding 3
    Commercial name             : Dolby Digital
    Codec ID                    : A_AC3
    Duration                    : 1 h 31 min
    Bit rate mode               : Constant
    Bit rate                    : 384 kb/s
    Channel(s)                  : 6 channels
    Channel layout              : L R C LFE Ls Rs
    Sampling rate               : 48.0 kHz
    Frame rate                  : 31.250 FPS (1536 SPF)
    Bit depth                   : 16 bits
    Compression mode            : Lossy
    Delay relative to video     : -42 ms
    Stream size                 : 252 MiB (7%)
    Title                       : Inglés [CinemaniaHDD]
    Language                    : English
    Service kind                : Complete Main
    Default                     : No
    Forced                      : No

    Menu
    00:00:00.000                : en:1
    00:06:12.000                : en:2
    00:12:18.000                : en:3
    00:18:40.000                : en:4
    00:23:01.000                : en:5
    00:29:46.000                : en:6
    00:35:02.000                : en:7
    00:40:43.000                : en:8
    00:46:22.000                : en:9
    00:52:13.000                : en:10
    00:58:02.000                : en:11
    01:03:36.000                : en:12
    01:09:54.000                : en:13
    01:15:19.000                : en:14
    01:21:14.000                : en:15
    01:27:02.000                : en:16

     

  • Peso: 3.71 GiB

Sinopsis

La historia se centra en dos parejas que atraviesan una situación distinta en sus relaciones sentimentales. Por un lado, Owen y Hallie, hasta el momento una pareja estable de larga duración, luchan por evitar que su relación se termine de romper por completo. Por el otro, Matta y Willa se embarcan en un romance muy distinto del que preveían en un principio. Adaptación de un cortometraje homónimo del propio director del año 2015.

Ficha técnica

  • Titulo original: In a Relationship
  • Fecha de lanzamiento: 09-11-2018 (Mexico, United States of America)
  • Director: Sam Boyd
  • Género: Comedia, Drama

Video trailer de la película

Enlaces de descarga

Rip de Bluray

Descargar In a Relationship (2018) WEB-DL 1080p Latino




Aportes de DPeliculasHDmega la pass es:dpeliculashdmega.org Aportes de CinemaniaHD la pass es:cinemaniahdd.com
Guardado en : Comedia , Drama

Películas relacionadas

  • Men in Black (1997) REMUX 4K HDR Latino – CMHDD

    Men in Black (1997) REMUX 4K HDR Latino – CMHDD

    1997
    Men in Black (1997) REMUX 4K HDR Latino – CMHDD

    1h 34m 1997

    Durante muchos años los extraterrestres han vivido en la Tierra, mezclados con los humanos, sin que...

    Director: Tyrone S. Walker

    Género: Acción

    Actores: Willie C. Carpenter

  • Blonde (2022) NF WEB-DL 1080p Latino

    Blonde (2022) NF WEB-DL 1080p Latino

    2022
    Blonde (2022) NF WEB-DL 1080p Latino

    2h 46m 2022

    Descargar Blonde (2022) NF WEB-DL 1080p Latino. Basada en el bestseller de la cinco veces finalista al...

    Director: Kristin Bree Calabrese

    Género: Drama

    Actores: Xavier Samuel

  • Tren Bala (2022) WEB-DL 4K UHD HDR Latino

    Tren Bala (2022) WEB-DL 4K UHD HDR Latino

    2022
    Tren Bala (2022) WEB-DL 4K UHD HDR Latino

    2h 7m 2022

    Descargar Tren Bala (2022) WEB-DL 4K UHD HDR Latino. El desafortunado asesino "Catarina" está decidido...

    Director: Paul Barry

    Género: 4K HDR

    Actores: Zooey Miyoshi

  • Tren Bala (2022) AMZN WEB-DL 1080p Latino

    Tren Bala (2022) AMZN WEB-DL 1080p Latino

    2022
    Tren Bala (2022) AMZN WEB-DL 1080p Latino

    2h 7m 2022

    Descargar Tren Bala (2022) AMZN WEB-DL 1080p Latino. Cinco asesinos a sueldo se encuentran a bordo de...

    Director: Paul Barry

    Género: Acción

    Actores: Zooey Miyoshi

descargar In a Relationship (2018) WEB-DL 1080p Latino WEBDL 1080p gratis, In a Relationship (2018) WEB-DL 1080p Latino WEBDL mega 1 link, In a Relationship (2018) WEB-DL 1080p Latino WEBDL pelicula completa, descargar In a Relationship (2018) WEB-DL 1080p Latino WEBDL gratis en mega.

In a Relationship (2018) WEB-DL 1080p Latino pelicula full hd, In a Relationship (2018) WEB-DL 1080p Latino mega latino, In a Relationship (2018) WEB-DL 1080p Latino 4k latino, In a Relationship (2018) WEB-DL 1080p Latino pelicula completa, In a Relationship (2018) WEB-DL 1080p Latino descargar gratis, descargar In a Relationship (2018) WEB-DL 1080p Latino pelicula latino, In a Relationship (2018) WEB-DL 1080p Latino 1 link mega, In a Relationship (2018) WEB-DL 1080p Latino 1 link google drive, In a Relationship (2018) WEB-DL 1080p Latino hd 1080p latino.
Comentarios 0