×

¿Problemas para descargar con Mozilla, EDGE? Deshabilita la opción "Abrir vinculos en una pestaña nueva" tal como lo muestra ésta imagen.

Impractical Jokers: La película (2020) REMUX 1080p Latino

265 vistas

Información de Impractical Jokers: La película (2020) REMUX 1080p Latino

Datos de la película

  • Calidad: Full 1080p
  • Audio: Español Latino AC3 5.1 iTUNES - Ingles DTS 5.1 BLURAY
  • Subtitulos: Español Latino SRT- FORZADOS SRT
  • Resolución: 1920x1080p
  • Formato: MKV
  • Codec: H.264
  • Encoder: Melkor
  • Mediainfo: Clic para Mostrar Datos Ver
  • Impractical Jokers La pelicula (2020) REMUX 1080p Latino.mkv
    Format                      : Matroska
    Format version              : Version 4
    File size                   : 18.8 GiB
    Duration                    : 1 h 32 min
    Overall bit rate mode       : Variable
    Overall bit rate            : 29.1 Mb/s
    Movie name                  : Impractical Jokers The Movie (2020) CinemaniaHDD.Net
    Encoded date                : UTC 2020-11-16 00:09:23
    Writing application         : mkvmerge v51.0.0 ('I Wish') 64-bit
    Writing library             : libebml v1.4.0 + libmatroska v1.6.2
    Attachments                 : CINEMANIAHD.png

    Video
    ID                          : 1
    Format                      : AVC
    Format/Info                 : Advanced Video Codec
    Format profile              : High@L4.1
    Format settings             : CABAC / 4 Ref Frames
    Format settings, CABAC      : Yes
    Format settings, Reference  : 4 frames
    Codec ID                    : V_MPEG4/ISO/AVC
    Duration                    : 1 h 32 min
    Bit rate mode               : Variable
    Bit rate                    : 24.9 Mb/s
    Maximum bit rate            : 38.0 Mb/s
    Width                       : 1 920 pixels
    Height                      : 1 080 pixels
    Display aspect ratio        : 16:9
    Frame rate mode             : Constant
    Frame rate                  : 23.976 (24000/1001) FPS
    Color space                 : YUV
    Chroma subsampling          : 4:2:0
    Bit depth                   : 8 bits
    Scan type                   : Progressive
    Bits/(Pixel*Frame)          : 0.500
    Stream size                 : 16.1 GiB (86%)
    Title                       : REMUX HD1080p [CinemaniaHDD]
    Language                    : English
    Default                     : Yes
    Forced                      : No

    Audio #1
    ID                          : 2
    Format                      : AC-3
    Format/Info                 : Audio Coding 3
    Commercial name             : Dolby Digital
    Codec ID                    : A_AC3
    Duration                    : 1 h 32 min
    Bit rate mode               : Constant
    Bit rate                    : 384 kb/s
    Channel(s)                  : 6 channels
    Channel layout              : L R C LFE Ls Rs
    Sampling rate               : 48.0 kHz
    Frame rate                  : 31.250 FPS (1536 SPF)
    Compression mode            : Lossy
    Delay relative to video     : 652 ms
    Stream size                 : 254 MiB (1%)
    Title                       : Español Latino [CinemaniaHDD]
    Language                    : Spanish
    Service kind                : Complete Main
    Default                     : Yes
    Forced                      : No

    Audio #2
    ID                          : 3
    Format                      : DTS XLL
    Format/Info                 : Digital Theater Systems
    Commercial name             : DTS-HD Master Audio
    Codec ID                    : A_DTS
    Duration                    : 1 h 32 min
    Bit rate mode               : Variable
    Bit rate                    : 3 813 kb/s
    Channel(s)                  : 6 channels
    Channel layout              : C L R Ls Rs LFE
    Sampling rate               : 48.0 kHz
    Frame rate                  : 93.750 FPS (512 SPF)
    Bit depth                   : 24 bits
    Compression mode            : Lossless
    Stream size                 : 2.46 GiB (13%)
    Title                       : Ingles [CinemaniaHDD]
    Language                    : English
    Default                     : No
    Forced                      : No

    Text #1
    ID                          : 4
    Format                      : UTF-8
    Codec ID                    : S_TEXT/UTF8
    Codec ID/Info               : UTF-8 Plain Text
    Duration                    : 1 h 12 min
    Bit rate                    : 1 b/s
    Count of elements           : 21
    Stream size                 : 579 Bytes (0%)
    Title                       : Forzados-SRT [CinemaniaHDD]
    Language                    : Spanish
    Default                     : Yes
    Forced                      : No

    Text #2
    ID                          : 5
    Format                      : UTF-8
    Codec ID                    : S_TEXT/UTF8
    Codec ID/Info               : UTF-8 Plain Text
    Duration                    : 1 h 32 min
    Bit rate                    : 112 b/s
    Count of elements           : 2174
    Stream size                 : 75.8 KiB (0%)
    Title                       : Español-SRT [CinemaniaHDD]
    Language                    : Spanish
    Default                     : No
    Forced                      : No

    Text #3
    ID                          : 6
    Format                      : UTF-8
    Codec ID                    : S_TEXT/UTF8
    Codec ID/Info               : UTF-8 Plain Text
    Duration                    : 1 h 32 min
    Bit rate                    : 101 b/s
    Count of elements           : 2176
    Stream size                 : 68.5 KiB (0%)
    Title                       : Ingles-SRT [CinemaniaHDD]
    Language                    : English
    Default                     : No
    Forced                      : No

    Menu
    00:00:00.000                : en:Chapter 1
    00:09:51.257                : en:Chapter 2
    00:19:57.947                : en:Chapter 3
    00:29:53.917                : en:Chapter 4
    00:39:56.811                : en:Chapter 5
    00:50:19.683                : en:Chapter 6
    01:01:31.521                : en:Chapter 7
    01:11:15.104                : en:Chapter 8
    01:22:15.180                : en:Chapter 9
    01:26:45.826                : en:Chapter 10

  • Peso: 18.8 GiB

Sinopsis

Descargar Impractical Jokers: La película (2020) REMUX 1080p Latino. Desafíos de cámaras ocultas entre cuatro amigos de toda la vida, mientras viajan en coche desde Staten Island hasta Miami.

Ficha técnica

  • Titulo original: Impractical Jokers: The Movie
  • Fecha de lanzamiento: 21-02-2020 (United States of America)
  • Director: Chris Henchy
  • Género: Comedia, Remux

Video trailer de la película

Enlaces de descarga

Rip de Bluray

Descargar Impractical Jokers: La película (2020) REMUX 1080p Latino




Aportes de DPeliculasHDmega la pass es:dpeliculashdmega.org Aportes de CinemaniaHD la pass es:cinemaniahdd.com
Guardado en : Comedia , Remux

Películas relacionadas

descargar Impractical Jokers: La película (2020) REMUX 1080p Latino Full 1080p 1080p gratis, Impractical Jokers: La película (2020) REMUX 1080p Latino Full 1080p mega 1 link, Impractical Jokers: La película (2020) REMUX 1080p Latino Full 1080p pelicula completa, descargar Impractical Jokers: La película (2020) REMUX 1080p Latino Full 1080p gratis en mega.

Impractical Jokers: La película (2020) REMUX 1080p Latino pelicula full hd, Impractical Jokers: La película (2020) REMUX 1080p Latino mega latino, Impractical Jokers: La película (2020) REMUX 1080p Latino 4k latino, Impractical Jokers: La película (2020) REMUX 1080p Latino pelicula completa, Impractical Jokers: La película (2020) REMUX 1080p Latino descargar gratis, descargar Impractical Jokers: La película (2020) REMUX 1080p Latino pelicula latino, Impractical Jokers: La película (2020) REMUX 1080p Latino 1 link mega, Impractical Jokers: La película (2020) REMUX 1080p Latino 1 link google drive, Impractical Jokers: La película (2020) REMUX 1080p Latino hd 1080p latino.
Comentarios 0