×

¿Problemas para descargar con Mozilla, EDGE? Deshabilita la opción "Abrir vinculos en una pestaña nueva" tal como lo muestra ésta imagen.

Imperfectos (2023) AMZN WEB-DL 1080p Latino

110 vistas

Información de Imperfectos (2023) AMZN WEB-DL 1080p Latino

Datos de la película

  • Calidad: WEBDL
  • Audio: Español Latino AC3 5.1 WEB-DL - Ingles AC3 5.1 WEB-DL
  • Subtitulos: Español Latino SRT- FORZADOS SRT
  • Resolución: 1920x1040p
  • Formato: MKV
  • Codec: H.264
  • Encoder: Melkor
  • Mediainfo: Clic para Mostrar Datos Ver
  • Shortcomings (2023) AMZN WEB 1080p Latino.mkv
    Format                      : Matroska
    Format version              : Version 4
    File size                   : 6.81 GiB
    Duration                    : 1 h 31 min
    Overall bit rate            : 10.6 Mb/s
    Movie name                  : Shortcomings (2023) CinemaniaHDD.Net
    Encoded date                : UTC 2024-02-04 19:33:19
    Writing application         : mkvmerge v56.1.0 ('My Friend') 64-bit
    Writing library             : libebml v1.4.2 + libmatroska v1.6.4
    Attachments                 : CINEMANIAHD.png
    Site                        : CinemaniaHDD.Net
    Uploader                    : Melkor

    Video
    ID                          : 1
    Format                      : AVC
    Format/Info                 : Advanced Video Codec
    Format profile              : High@L4
    Format settings             : CABAC / 4 Ref Frames
    Format settings, CABAC      : Yes
    Format settings, Reference  : 4 frames
    Codec ID                    : V_MPEG4/ISO/AVC
    Duration                    : 1 h 31 min
    Bit rate mode               : Constant
    Bit rate                    : 9 344 kb/s
    Nominal bit rate            : 10 000 kb/s
    Width                       : 1 920 pixels
    Height                      : 1 040 pixels
    Display aspect ratio        : 1.85:1
    Frame rate mode             : Constant
    Frame rate                  : 23.976 (24000/1001) FPS
    Color space                 : YUV
    Chroma subsampling          : 4:2:0
    Bit depth                   : 8 bits
    Scan type                   : Progressive
    Bits/(Pixel*Frame)          : 0.195
    Stream size                 : 5.99 GiB (88%)
    Title                       : WEB HD1080p [CinemaniaHDD]
    Language                    : English
    Default                     : Yes
    Forced                      : No
    Color range                 : Limited
    Color primaries             : BT.709
    Transfer characteristics    : BT.709
    Matrix coefficients         : BT.709

    Audio #1
    ID                          : 2
    Format                      : E-AC-3
    Format/Info                 : Enhanced AC-3
    Commercial name             : Dolby Digital Plus
    Codec ID                    : A_EAC3
    Duration                    : 1 h 31 min
    Bit rate mode               : Constant
    Bit rate                    : 640 kb/s
    Channel(s)                  : 6 channels
    Channel layout              : L R C LFE Ls Rs
    Sampling rate               : 48.0 kHz
    Frame rate                  : 31.250 FPS (1536 SPF)
    Compression mode            : Lossy
    Stream size                 : 420 MiB (6%)
    Title                       : Español Latino [CinemaniaHDD]
    Language                    : Spanish
    Service kind                : Complete Main
    Default                     : Yes
    Forced                      : No

    Audio #2
    ID                          : 3
    Format                      : E-AC-3
    Format/Info                 : Enhanced AC-3
    Commercial name             : Dolby Digital Plus
    Codec ID                    : A_EAC3
    Duration                    : 1 h 31 min
    Bit rate mode               : Constant
    Bit rate                    : 640 kb/s
    Channel(s)                  : 6 channels
    Channel layout              : L R C LFE Ls Rs
    Sampling rate               : 48.0 kHz
    Frame rate                  : 31.250 FPS (1536 SPF)
    Compression mode            : Lossy
    Stream size                 : 420 MiB (6%)
    Title                       : Ingles [CinemaniaHDD]
    Language                    : English
    Service kind                : Complete Main
    Default                     : No
    Forced                      : No

    Text #1
    ID                          : 4
    Format                      : UTF-8
    Codec ID                    : S_TEXT/UTF8
    Codec ID/Info               : UTF-8 Plain Text
    Duration                    : 1 h 29 min
    Bit rate                    : 1 b/s
    Count of elements           : 31
    Stream size                 : 676 Bytes (0%)
    Title                       : Forzados-SRT [CinemaniaHDD]
    Language                    : Spanish
    Default                     : Yes
    Forced                      : No

    Text #2
    ID                          : 5
    Format                      : UTF-8
    Codec ID                    : S_TEXT/UTF8
    Codec ID/Info               : UTF-8 Plain Text
    Duration                    : 1 h 31 min
    Bit rate                    : 67 b/s
    Count of elements           : 1344
    Stream size                 : 45.2 KiB (0%)
    Title                       : Español-SRT [CinemaniaHDD]
    Language                    : Spanish
    Default                     : No
    Forced                      : No

    Text #3
    ID                          : 6
    Format                      : UTF-8
    Codec ID                    : S_TEXT/UTF8
    Codec ID/Info               : UTF-8 Plain Text
    Duration                    : 1 h 29 min
    Bit rate                    : 80 b/s
    Count of elements           : 1604
    Stream size                 : 52.5 KiB (0%)
    Title                       : Ingles-SRT [CinemaniaHDD]
    Language                    : English
    Default                     : No
    Forced                      : No

  • Peso: 6.81 GiB

Sinopsis

Descargar Imperfectos (2023) AMZN WEB-DL 1080p Latino Cuando su novia se marcha a Nueva York para hacer unas prácticas de tres meses, un director de cine de arte y ensayo de Berkeley, muy obstinado, empieza a explorar la vida de soltero.

Ficha técnica

Video trailer de la película

Enlaces de descarga

Rip de Bluray

Descargar Imperfectos (2023) AMZN WEB-DL 1080p Latino




Aportes de DPeliculasHDmega la pass es:dpeliculashdmega.org Aportes de CinemaniaHD la pass es:cinemaniahdd.com Aportes recientes:cinemaniahdd.net
Guardado en : Comedia , Drama , Romance

Películas relacionadas

descargar Imperfectos (2023) AMZN WEB-DL 1080p Latino WEBDL 1080p gratis, Imperfectos (2023) AMZN WEB-DL 1080p Latino WEBDL mega 1 link, Imperfectos (2023) AMZN WEB-DL 1080p Latino WEBDL pelicula completa, descargar Imperfectos (2023) AMZN WEB-DL 1080p Latino WEBDL gratis en mega.

Imperfectos (2023) AMZN WEB-DL 1080p Latino pelicula full hd, Imperfectos (2023) AMZN WEB-DL 1080p Latino mega latino, Imperfectos (2023) AMZN WEB-DL 1080p Latino 4k latino, Imperfectos (2023) AMZN WEB-DL 1080p Latino pelicula completa, Imperfectos (2023) AMZN WEB-DL 1080p Latino descargar gratis, descargar Imperfectos (2023) AMZN WEB-DL 1080p Latino pelicula latino, Imperfectos (2023) AMZN WEB-DL 1080p Latino 1 link mega, Imperfectos (2023) AMZN WEB-DL 1080p Latino 1 link google drive, Imperfectos (2023) AMZN WEB-DL 1080p Latino hd 1080p latino.
Comentarios 0