Impacto fulminante (1983) Full 1080p Latino

555 vistas
1 estrella2 estrellas3 estrellas4 estrellas5 estrellas (Ninguna valoración todavía)
Cargando…

Información de Impacto fulminante (1983) Full 1080p Latino

Datos de la película

  • Calidad: Full 1080p
  • Audio: Español Latino AC3 2.0 BLURAY - Ingles AC3 5.1 BLURAY
  • Subtitulos: Español Latino PGS - Ingles PGS
  • Resolución: 1920x1080p
  • Formato: MKV
  • Codec: H.264
  • Encoder: Dracarys
  • Mediainfo: Clic para Mostrar Datos Ver
  • Format                                   : Matroska
    Format version                           : Version 4 / Version 2
    File size                                : 5.19 GiB
    Duration                                 : 1 h 57 min
    Overall bit rate                         : 6 344 kb/s
    Movie name                               : CinemaniaHDD.net
    Encoded date                             : UTC 2018-11-27 18:07:33 / UTC 2018-11-24T20:23:41Z
    Writing application                      : mkvmerge v15.0.0 ('Duel with the Devil') 64-bit
    Writing library                          : libebml v1.3.5 + libmatroska v1.4.5 / Lavf57.7.2

    Video
    ID                                       : 1
    Format                                   : AVC
    Format/Info                              : Advanced Video Codec
    Format profile                           : [email protected]
    Format settings                          : CABAC / 4 Ref Frames
    Format settings, CABAC                   : Yes
    Format settings, RefFrames               : 4 frames
    Codec ID                                 : V_MPEG4/ISO/AVC
    Duration                                 : 1 h 57 min
    Bit rate                                 : 5 385 kb/s
    Width                                    : 1 920 pixels
    Height                                   : 1 080 pixels
    Display aspect ratio                     : 16:9
    Frame rate mode                          : Constant
    Frame rate                               : 23.976 (24000/1001) FPS
    Color space                              : YUV
    Chroma subsampling                       : 4:2:0
    Bit depth                                : 8 bits
    Scan type                                : Progressive
    Bits/(Pixel*Frame)                       : 0.108
    Stream size                              : 4.41 GiB (85%)
    Writing library                          : x264 core 148 r2708 86b7198
    Encoding settings                        : cabac=1 / ref=4 / deblock=1:0:0 / analyse=0x3:0x133 / me=esa / subme=10 / psy=1 / psy_rd=1.00:0.00 / mixed_ref=1 / me_range=24 / chroma_me=1 / trellis=2 / 8x8dct=1 / cqm=0 / deadzone=21,11 / fast_pskip=1 / chroma_qp_offset=-2 / threads=34 / lookahead_threads=5 / sliced_threads=0 / nr=0 / decimate=1 / interlaced=0 / bluray_compat=0 / constrained_intra=0 / bframes=8 / b_pyramid=2 / b_adapt=2 / b_bias=0 / direct=3 / weightb=1 / open_gop=0 / weightp=2 / keyint=240 / keyint_min=24 / scenecut=40 / intra_refresh=0 / rc_lookahead=60 / rc=crf / mbtree=1 / crf=20.0 / qcomp=0.60 / qpmin=0 / qpmax=69 / qpstep=4 / vbv_maxrate=62500 / vbv_bufsize=78125 / crf_max=0.0 / nal_hrd=none / filler=0 / ip_ratio=1.40 / aq=1:1.00
    Language                                 : English
    Default                                  : Yes
    Forced                                   : No
    Color range                              : Limited
    Color primaries                          : BT.709
    Transfer characteristics                 : BT.709
    Matrix coefficients                      : BT.709
    Statistics Tags Issue                    : mkvmerge v15.0.0 ('Duel with the Devil') 64-bit 2018-11-27 18:07:33 / mkvmerge v15.0.0 ('Duel with the Devil') 64-bit 2018-11-27 18:07:33 / UTC 2018-11-24T20:23:41Z
    FromStats_BitRate                        : 5490920
    FromStats_Duration                       : 01:57:09.064000000
    FromStats_FrameCount                     : 168529
    FromStats_StreamSize                     : 4824503703

    Audio #1
    ID                                       : 2
    Format                                   : AC-3
    Format/Info                              : Audio Coding 3
    Format settings, Endianness              : Big
    Codec ID                                 : A_AC3
    Duration                                 : 1 h 57 min
    Bit rate mode                            : Constant
    Bit rate                                 : 192 kb/s
    Channel(s)                               : 2 channels
    Channel positions                        : Front: L R
    Sampling rate                            : 48.0 kHz
    Frame rate                               : 31.250 FPS (1536 SPF)
    Bit depth                                : 16 bits
    Compression mode                         : Lossy
    Stream size                              : 161 MiB (3%)
    Language                                 : Spanish
    Service kind                             : Complete Main
    Default                                  : Yes
    Forced                                   : No
    Statistics Tags Issue                    : mkvmerge v15.0.0 ('Duel with the Devil') 64-bit 2018-11-27 18:07:33 / mkvmerge v15.0.0 ('Duel with the Devil') 64-bit 2018-11-27 18:07:33 / UTC 2018-11-24T20:23:41Z
    FromStats_BitRate                        : 192000
    FromStats_Duration                       : 01:57:09.088000000
    FromStats_FrameCount                     : 219659
    FromStats_StreamSize                     : 168698112

    Audio #2
    ID                                       : 3
    Format                                   : AC-3
    Format/Info                              : Audio Coding 3
    Format settings, Endianness              : Big
    Codec ID                                 : A_AC3
    Duration                                 : 1 h 57 min
    Bit rate mode                            : Constant
    Bit rate                                 : 640 kb/s
    Channel(s)                               : 6 channels
    Channel positions                        : Front: L C R, Side: L R, LFE
    Sampling rate                            : 48.0 kHz
    Frame rate                               : 31.250 FPS (1536 SPF)
    Bit depth                                : 16 bits
    Compression mode                         : Lossy
    Stream size                              : 536 MiB (10%)
    Language                                 : English
    Service kind                             : Complete Main
    Default                                  : No
    Forced                                   : No
    Statistics Tags Issue                    : mkvmerge v15.0.0 ('Duel with the Devil') 64-bit 2018-11-27 18:07:33 / mkvmerge v15.0.0 ('Duel with the Devil') 64-bit 2018-11-27 18:07:33 / UTC 2018-11-24T20:23:41Z
    FromStats_BitRate                        : 640000
    FromStats_Duration                       : 01:57:09.088000000
    FromStats_FrameCount                     : 219659
    FromStats_StreamSize                     : 562327040

    Text #1
    ID                                       : 4
    Format                                   : PGS
    Muxing mode                              : zlib
    Codec ID                                 : S_HDMV/PGS
    Codec ID/Info                            : Picture based subtitle format used on BDs/HD-DVDs
    Language                                 : English
    Default                                  : No
    Forced                                   : No
    Statistics Tags Issue                    : mkvmerge v15.0.0 ('Duel with the Devil') 64-bit 2018-11-27 18:07:33 / mkvmerge v15.0.0 ('Duel with the Devil') 64-bit 2018-11-27 18:07:33 / UTC 2018-11-24T20:23:41Z
    FromStats_BitRate                        : 22890
    FromStats_Duration                       : 01:56:48.334000000
    FromStats_FrameCount                     : 1893
    FromStats_StreamSize                     : 20053300

    Text #2
    ID                                       : 5
    Format                                   : PGS
    Muxing mode                              : zlib
    Codec ID                                 : S_HDMV/PGS
    Codec ID/Info                            : Picture based subtitle format used on BDs/HD-DVDs
    Language                                 : Spanish
    Default                                  : No
    Forced                                   : No
    Statistics Tags Issue                    : mkvmerge v15.0.0 ('Duel with the Devil') 64-bit 2018-11-27 18:07:33 / mkvmerge v15.0.0 ('Duel with the Devil') 64-bit 2018-11-27 18:07:33 / UTC 2018-11-24T20:23:41Z
    FromStats_BitRate                        : 19734
    FromStats_Duration                       : 01:56:48.334000000
    FromStats_FrameCount                     : 1682
    FromStats_StreamSize                     : 17287849

    Menu
    00:00:00.000                             : :Chapter 1
    00:03:02.683                             : :Chapter 2
    00:05:16.650                             : :Chapter 3
    00:07:50.136                             : :Chapter 4
    00:09:23.563                             : :Chapter 5
    00:12:24.077                             : :Chapter 6
    00:13:35.982                             : :Chapter 7
    00:17:12.532                             : :Chapter 8
    00:19:14.820                             : :Chapter 9
    00:21:22.782                             : :Chapter 10
    00:23:52.097                             : :Chapter 11
    00:27:20.305                             : :Chapter 12
    00:31:47.906                             : :Chapter 13
    00:35:39.471                             : :Chapter 14
    00:40:53.117                             : :Chapter 15
    00:45:30.728                             : :Chapter 16
    00:49:12.616                             : :Chapter 17
    00:52:33.651                             : :Chapter 18
    00:55:44.007                             : :Chapter 19
    00:59:36.740                             : :Chapter 20
    01:01:46.369                             : :Chapter 21
    01:03:08.285                             : :Chapter 22
    01:05:18.581                             : :Chapter 23
    01:07:28.545                             : :Chapter 24
    01:08:44.621                             : :Chapter 25
    01:10:17.547                             : :Chapter 26
    01:14:44.647                             : :Chapter 27
    01:22:09.258                             : :Chapter 28
    01:26:19.174                             : :Chapter 29
    01:28:37.145                             : :Chapter 30
    01:34:14.816                             : :Chapter 31
    01:36:16.938                             : :Chapter 32
    01:42:37.652                             : :Chapter 33
    01:47:38.786                             : :Chapter 34
    01:50:21.782                             : :Chapter 35
    01:52:19.900                             : :Chapter 36
    01:53:49.489                             : :Chapter 37

     

  • Peso: 5.19 GiB

Sinopsis

Callahan es un experimentado detective de policía del departamento de homicidios de San Francisco, famoso por sus drásticos métodos, que provocan fuertes enfrentamientos con sus superiores. Tiene que desplazarse a San Paulo, pequeño pueblo situado al norte de California, donde sigue la pista del autor de la muerte de unos hombres, a los que han encontrado con unos disparos en la frente y en los genitales. Allí conoce a una solitaria artista llamada Jennifer Spencer.

Ficha técnica

Video trailer de la película

Enlaces de descarga

Rip de Bluray

Descargar Impacto fulminante (1983) Full 1080p Latino




Aportes de DPeliculasHDmega la pass es:dpeliculashdmega.org Aportes de CinemaniaHD la pass es:cinemaniahdd.com

Películas relacionadas

  • The mule (2018) WEB-DL 1080p Latino

    2018
    The mule (2018) WEB-DL 1080p Latino

    0.0 1h 56m 2018

    A Earl Stone (Eastwood), un octogenario que está en quiebra, solo, y que se enfrenta a la ejecución...

    Director: Clint Eastwood

    Género: Crimen

    Actores: Victor Rasuk

  • Aquaman (2018) Full HD 1080p Latino

    2018
    Aquaman (2018) Full HD 1080p Latino

    5.0 2h 24m 2018

    Un icono durante más de 70 años, Aquaman (Jason Momoa) es el Rey de los Siete Mares. Este reacio gobernante...

    Director: James Wan

    Género: Acción

    Actores: Yahya Abdul-Mateen II

  • Bumblebee (2018) WEB-DL 1080p Castellano

    2018
    Bumblebee (2018) WEB-DL 1080p Castellano

    3.0 1h 54m 2018

    Sexta entrega de la saga 'Transformers', esta vez centrada en el "hermano pequeño" de los Autobots,...

    Director: Travis Knight

    Género: Acción

    Actores: Yianni Apostolopolous

  • Robin Hood (2018) 4K UHD HDR Latino

    2018
    Robin Hood (2018) 4K UHD HDR Latino

    0.0 1h 56m 2018

    Descargar Robin Hood (2018) 4K UHD HDR Latino, Mega, Google Drive. Cuando el joven Robin Hood (Taron...

    Director: Otto Bathurst

    Género: 4K HDR

    Actores: Yasen Atour

  • Nace Una Estrella (2018) 4K UHD HDR Latino

    2018
    Nace Una Estrella (2018) 4K UHD HDR Latino

    0.0 2h 25m 2018

    Descargar Nace Una Estrella (2018) 4K UHD HDR Latino, Mega, Google Drive. Jackson Maine es una estrella...

    Director: Bradley Cooper

    Género: 4K HDR

    Actores: Willam Belli

Comentarios 0