×

¿Problemas para descargar con Mozilla, EDGE? Deshabilita la opción "Abrir vinculos en una pestaña nueva" tal como lo muestra ésta imagen.

Jolt: Impacto (2021) REMUX 1080p Latino

102 vistas

Información de Jolt: Impacto (2021) REMUX 1080p Latino

Datos de la película

  • Calidad: Full 1080p
  • Audio: Se especifica abajo de la Sinopsis
  • Subtitulos: Español Latino SRT- FORZADOS SRT
  • Resolución: 1920x1080p
  • Formato: MKV
  • Codec: H.264
  • Encoder: Melkor
  • Mediainfo: Clic para Mostrar Datos Ver
  • Impacto (2021) REMUX 1080p Latino.mkv
    Format                      : Matroska
    Format version              : Version 4
    File size                   : 21.2 GiB
    Duration                    : 1 h 31 min
    Overall bit rate mode       : Variable
    Overall bit rate            : 33.2 Mb/s
    Movie name                  : Jolt (2021) CinemaniaHDD.Net
    Encoded date                : UTC 2021-12-03 05:04:12
    Writing application         : mkvmerge v56.1.0 ('My Friend') 64-bit
    Writing library             : libebml v1.4.2 + libmatroska v1.6.4
    Attachments                 : CINEMANIAHD.png

    Video
    ID                          : 1
    Format                      : AVC
    Format/Info                 : Advanced Video Codec
    Format profile              : High@L4.1
    Format settings             : CABAC / 4 Ref Frames
    Format settings, CABAC      : Yes
    Format settings, Reference  : 4 frames
    Codec ID                    : V_MPEG4/ISO/AVC
    Duration                    : 1 h 31 min
    Bit rate mode               : Variable
    Bit rate                    : 27.6 Mb/s
    Maximum bit rate            : 33.0 Mb/s
    Width                       : 1 920 pixels
    Height                      : 1 080 pixels
    Display aspect ratio        : 16:9
    Frame rate mode             : Constant
    Frame rate                  : 24.000 FPS
    Color space                 : YUV
    Chroma subsampling          : 4:2:0
    Bit depth                   : 8 bits
    Scan type                   : Progressive
    Bits/(Pixel*Frame)          : 0.555
    Stream size                 : 17.6 GiB (83%)
    Title                       : REMUX HD1080p [CinemaniaHDD]
    Default                     : Yes
    Forced                      : Yes

    Audio #1
    ID                          : 2
    Format                      : AC-3
    Format/Info                 : Audio Coding 3
    Commercial name             : Dolby Digital
    Codec ID                    : A_AC3
    Duration                    : 1 h 31 min
    Bit rate mode               : Constant
    Bit rate                    : 640 kb/s
    Channel(s)                  : 6 channels
    Channel layout              : L R C LFE Ls Rs
    Sampling rate               : 48.0 kHz
    Frame rate                  : 31.250 FPS (1536 SPF)
    Compression mode            : Lossy
    Stream size                 : 419 MiB (2%)
    Title                       : Español Latino [CinemaniaHDD]
    Language                    : Spanish
    Service kind                : Complete Main
    Default                     : Yes
    Forced                      : Yes

    Audio #2
    ID                          : 3
    Format                      : DTS XLL
    Format/Info                 : Digital Theater Systems
    Commercial name             : DTS-HD Master Audio
    Codec ID                    : A_DTS
    Duration                    : 1 h 31 min
    Bit rate mode               : Variable
    Bit rate                    : 4 997 kb/s
    Channel(s)                  : 8 channels
    Channel layout              : C L R LFE Lb Rb Lss Rss
    Sampling rate               : 48.0 kHz
    Frame rate                  : 93.750 FPS (512 SPF)
    Bit depth                   : 24 bits
    Compression mode            : Lossless
    Stream size                 : 3.19 GiB (15%)
    Title                       : Ingles [CinemaniaHDD]
    Language                    : English
    Default                     : No
    Forced                      : No

    Text #1
    ID                          : 4
    Format                      : UTF-8
    Codec ID                    : S_TEXT/UTF8
    Codec ID/Info               : UTF-8 Plain Text
    Duration                    : 1 h 23 min
    Bit rate                    : 0 b/s
    Count of elements           : 13
    Stream size                 : 391 Bytes (0%)
    Title                       : Forzados-SRT [CinemaniaHDD]
    Language                    : Spanish
    Default                     : Yes
    Forced                      : Yes

    Text #2
    ID                          : 5
    Format                      : UTF-8
    Codec ID                    : S_TEXT/UTF8
    Codec ID/Info               : UTF-8 Plain Text
    Duration                    : 1 h 30 min
    Bit rate                    : 47 b/s
    Count of elements           : 1030
    Stream size                 : 31.7 KiB (0%)
    Title                       : Español-SRT [CinemaniaHDD]
    Language                    : Spanish
    Default                     : No
    Forced                      : No

    Text #3
    ID                          : 6
    Format                      : UTF-8
    Codec ID                    : S_TEXT/UTF8
    Codec ID/Info               : UTF-8 Plain Text
    Duration                    : 1 h 24 min
    Bit rate                    : 70 b/s
    Count of elements           : 1588
    Stream size                 : 43.9 KiB (0%)
    Title                       : Ingles [CinemaniaHDD]
    Language                    : English
    Default                     : No
    Forced                      : No

    Menu
    00:00:00.000                : Chapter 01
    00:11:20.875                : Chapter 02
    00:22:42.375                : Chapter 03
    00:32:00.666                : Chapter 04
    00:44:03.083                : Chapter 05
    00:51:41.708                : Chapter 06
    01:03:19.625                : Chapter 07
    01:15:45.250                : Chapter 08
    01:25:10.958                : Chapter 09

  • Peso: 21.2 GiB

Sinopsis

Descargar Jolt: Impacto (2021) REMUX 1080p Latino. Una chica dura con tendencias ligeramente homicidas y que no controla la ira se da descargas con un chaleco de electrodos para volver a la normalidad si le entran las ganas de matar. Cuando asesinan al primer hombre del que se ha enamorado, empieza un desenfreno vengativo para encontrar al asesino, al mismo tiempo que la policía va tras ella porque la considera sospechosa.

Español Latino AC3 5.1 Web-DL – Ingles DTS-HD 7.1 Bluray

Ficha técnica

Video trailer de la película

Enlaces de descarga

Rip de Bluray

Descargar Jolt: Impacto (2021) REMUX 1080p Latino




Aportes de DPeliculasHDmega la pass es:dpeliculashdmega.org Aportes de CinemaniaHD la pass es:cinemaniahdd.com
Guardado en : Acción , Comedia , Remux

Películas relacionadas

descargar Jolt: Impacto (2021) REMUX 1080p Latino Full 1080p 1080p gratis, Jolt: Impacto (2021) REMUX 1080p Latino Full 1080p mega 1 link, Jolt: Impacto (2021) REMUX 1080p Latino Full 1080p pelicula completa, descargar Jolt: Impacto (2021) REMUX 1080p Latino Full 1080p gratis en mega.

Jolt: Impacto (2021) REMUX 1080p Latino pelicula full hd, Jolt: Impacto (2021) REMUX 1080p Latino mega latino, Jolt: Impacto (2021) REMUX 1080p Latino 4k latino, Jolt: Impacto (2021) REMUX 1080p Latino pelicula completa, Jolt: Impacto (2021) REMUX 1080p Latino descargar gratis, descargar Jolt: Impacto (2021) REMUX 1080p Latino pelicula latino, Jolt: Impacto (2021) REMUX 1080p Latino 1 link mega, Jolt: Impacto (2021) REMUX 1080p Latino 1 link google drive, Jolt: Impacto (2021) REMUX 1080p Latino hd 1080p latino.
Comentarios 0