×

¿Problemas para descargar con Mozilla, EDGE? Deshabilita la opción "Abrir vinculos en una pestaña nueva" tal como lo muestra ésta imagen.

Jolt: Impacto (2021) REMUX 4K UHD HDR Latino

260 vistas

Información de Jolt: Impacto (2021) REMUX 4K UHD HDR Latino

Datos de la película

  • Calidad: 4K HDR
  • Audio: Se especifica abajo de la Sinopsis
  • Subtitulos: Español Latino SRT- FORZADOS SRT
  • Resolución: 3840x2160p
  • Formato: MKV
  • Codec: HEVC
  • Encoder: Melkor
  • Mediainfo: Clic para Mostrar Datos Ver
  • Impacto (2021) REMUX UHD HDR Latino.mkv
    Format                      : Matroska
    Format version              : Version 4
    File size                   : 47.3 GiB
    Duration                    : 1 h 31 min
    Overall bit rate mode       : Variable
    Overall bit rate            : 74.0 Mb/s
    Movie name                  : Jolt (2021) CinemaniaHDD.Net
    Encoded date                : UTC 2021-12-05 00:56:30
    Writing application         : mkvmerge v56.1.0 ('My Friend') 64-bit
    Writing library             : libebml v1.4.2 + libmatroska v1.6.4
    Attachments                 : CINEMANIAHD.png

    Video
    ID                          : 1
    ID in the original source m : 4113 (0x1011)
    Format                      : HEVC
    Format/Info                 : High Efficiency Video Coding
    Format profile              : Main 10@L5.1@High
    HDR format                  : SMPTE ST 2086, HDR10 compatible
    Codec ID                    : V_MPEGH/ISO/HEVC
    Duration                    : 1 h 31 min
    Bit rate                    : 68.3 Mb/s
    Width                       : 3 840 pixels
    Height                      : 2 160 pixels
    Display aspect ratio        : 16:9
    Frame rate mode             : Constant
    Frame rate                  : 24.000 FPS
    Color space                 : YUV
    Chroma subsampling          : 4:2:0 (Type 2)
    Bit depth                   : 10 bits
    Bits/(Pixel*Frame)          : 0.343
    Stream size                 : 43.7 GiB (92%)
    Title                       : REMUX 2160p HDR [Bluray]
    Writing library             : ATEME Titan File 3.9.6 (4.9.6.4)        
    Language                    : English
    Default                     : Yes
    Forced                      : No
    Color range                 : Limited
    Color primaries             : BT.2020
    Transfer characteristics    : PQ
    Matrix coefficients         : BT.2020 non-constant
    Mastering display color pri : BT.2020
    Mastering display luminance : min: 0.0050 cd/m2, max: 1000 cd/m2
    Maximum Content Light Level : 6733 cd/m2
    Maximum Frame-Average Light : 626 cd/m2
    Original source medium      : Blu-ray

    Audio #1
    ID                          : 2
    Format                      : AC-3
    Format/Info                 : Audio Coding 3
    Commercial name             : Dolby Digital
    Codec ID                    : A_AC3
    Duration                    : 1 h 31 min
    Bit rate mode               : Constant
    Bit rate                    : 640 kb/s
    Channel(s)                  : 6 channels
    Channel layout              : L R C LFE Ls Rs
    Sampling rate               : 48.0 kHz
    Frame rate                  : 31.250 FPS (1536 SPF)
    Compression mode            : Lossy
    Stream size                 : 419 MiB (1%)
    Title                       : Español Latino [CinemaniaHDD]
    Language                    : Spanish
    Service kind                : Complete Main
    Default                     : Yes
    Forced                      : Yes

    Audio #2
    ID                          : 3
    ID in the original source m : 4353 (0x1101)
    Format                      : DTS XLL
    Format/Info                 : Digital Theater Systems
    Commercial name             : DTS-HD Master Audio
    Codec ID                    : A_DTS
    Duration                    : 1 h 31 min
    Bit rate mode               : Variable
    Bit rate                    : 4 998 kb/s
    Channel(s)                  : 8 channels
    Channel layout              : C L R LFE Lb Rb Lss Rss
    Sampling rate               : 48.0 kHz
    Frame rate                  : 93.750 FPS (512 SPF)
    Bit depth                   : 24 bits
    Compression mode            : Lossless
    Stream size                 : 3.20 GiB (7%)
    Title                       : Ingles [CinemaniaHDD]
    Language                    : English
    Default                     : No
    Forced                      : No
    Original source medium      : Blu-ray

    Text #1
    ID                          : 4
    Format                      : UTF-8
    Codec ID                    : S_TEXT/UTF8
    Codec ID/Info               : UTF-8 Plain Text
    Duration                    : 1 h 23 min
    Bit rate                    : 0 b/s
    Count of elements           : 13
    Stream size                 : 391 Bytes (0%)
    Title                       : Forzados-SRT [CinemaniaHDD]
    Language                    : Spanish
    Default                     : Yes
    Forced                      : Yes

    Text #2
    ID                          : 5
    Format                      : UTF-8
    Codec ID                    : S_TEXT/UTF8
    Codec ID/Info               : UTF-8 Plain Text
    Duration                    : 1 h 30 min
    Bit rate                    : 47 b/s
    Count of elements           : 1030
    Stream size                 : 31.7 KiB (0%)
    Title                       : Español-SRT [CinemaniaHDD]
    Language                    : Spanish
    Default                     : No
    Forced                      : No

    Text #3
    ID                          : 6
    Format                      : UTF-8
    Codec ID                    : S_TEXT/UTF8
    Codec ID/Info               : UTF-8 Plain Text
    Duration                    : 1 h 24 min
    Bit rate                    : 61 b/s
    Count of elements           : 1332
    Stream size                 : 38.3 KiB (0%)
    Title                       : Ingles-SRT [CinemaniaHDD]
    Language                    : English
    Default                     : No
    Forced                      : No

    Menu
    00:00:00.000                : Chapter 01
    00:11:20.875                : Chapter 02
    00:22:42.166                : Chapter 03
    00:32:00.583                : Chapter 04
    00:44:03.083                : Chapter 05
    00:51:41.333                : Chapter 06
    01:03:19.333                : Chapter 07
    01:15:45.250                : Chapter 08
    01:25:10.875                : Chapter 09

  • Peso: 47.3 GiB

Sinopsis

Descargar Jolt: Impacto (2021) REMUX 4K UHD HDR Latino. Una chica dura con tendencias ligeramente homicidas y que no controla la ira se da descargas con un chaleco de electrodos para volver a la normalidad si le entran las ganas de matar. Cuando asesinan al primer hombre del que se ha enamorado, empieza un desenfreno vengativo para encontrar al asesino, al mismo tiempo que la policía va tras ella porque la considera sospechosa.

Español Latino AC3 5.1 Web-DL – Ingles DTS-HD 7.1 Bluray

Disponible solo para VIP!!!

Ficha técnica

Video trailer de la película

Enlaces de descarga

Rip de Bluray

Descargar Jolt: Impacto (2021) REMUX 4K UHD HDR Latino


Aportes de DPeliculasHDmega la pass es:dpeliculashdmega.org Aportes de CinemaniaHD la pass es:cinemaniahdd.com
Guardado en : 4K HDR , 4K UHD , Acción , Comedia , Remux

Películas relacionadas

descargar Jolt: Impacto (2021) REMUX 4K UHD HDR Latino 4K HDR 1080p gratis, Jolt: Impacto (2021) REMUX 4K UHD HDR Latino 4K HDR mega 1 link, Jolt: Impacto (2021) REMUX 4K UHD HDR Latino 4K HDR pelicula completa, descargar Jolt: Impacto (2021) REMUX 4K UHD HDR Latino 4K HDR gratis en mega.

Jolt: Impacto (2021) REMUX 4K UHD HDR Latino pelicula full hd, Jolt: Impacto (2021) REMUX 4K UHD HDR Latino mega latino, Jolt: Impacto (2021) REMUX 4K UHD HDR Latino 4k latino, Jolt: Impacto (2021) REMUX 4K UHD HDR Latino pelicula completa, Jolt: Impacto (2021) REMUX 4K UHD HDR Latino descargar gratis, descargar Jolt: Impacto (2021) REMUX 4K UHD HDR Latino pelicula latino, Jolt: Impacto (2021) REMUX 4K UHD HDR Latino 1 link mega, Jolt: Impacto (2021) REMUX 4K UHD HDR Latino 1 link google drive, Jolt: Impacto (2021) REMUX 4K UHD HDR Latino hd 1080p latino.
Comentarios 0