×

¿Problemas para descargar con Mozilla, EDGE? Deshabilita la opción "Abrir vinculos en una pestaña nueva" tal como lo muestra ésta imagen.

Imaginaerum (2012) REMUX 1080p SUB

650 vistas

Información de Imaginaerum (2012) REMUX 1080p SUB

Datos de la película

  • Calidad: Full 1080p
  • Audio: Ingles DTS 5.1 BLURAY
  • Subtitulos: Español Latino SRT - Ingles SRT
  • Resolución: 1920x1080p
  • Formato: MKV
  • Codec: H.264
  • Encoder: CinefiloCool
  • Mediainfo: Clic para Mostrar Datos Ver
  • Imaginaerum (2012) REMUX 1080p SUB-CMHDD.mkv
    Format                      : Matroska
    Format version              : Version 4
    File size                   : 18.3 GiB
    Duration                    : 1 h 25 min
    Overall bit rate mode       : Variable
    Overall bit rate            : 30.5 Mb/s
    Movie name                  : Imaginaerum By Nightwish (2012) CinemaniaHDD.Net
    Encoded date                : UTC 2022-03-02 03:13:50
    Writing application         : mkvmerge v56.1.0 ('My Friend') 64-bit
    Writing library             : libebml v1.4.2 + libmatroska v1.6.4
    Attachments                 : CINEMANIAHD.png

    Video
    ID                          : 1
    ID in the original source m : 4113 (0x1011)
    Format                      : AVC
    Format/Info                 : Advanced Video Codec
    Format profile              : High@L4.1
    Format settings             : CABAC / 3 Ref Frames
    Format settings, CABAC      : Yes
    Format settings, Reference  : 3 frames
    Codec ID                    : V_MPEG4/ISO/AVC
    Duration                    : 1 h 25 min
    Bit rate mode               : Variable
    Bit rate                    : 28.0 Mb/s
    Maximum bit rate            : 39.0 Mb/s
    Width                       : 1 920 pixels
    Height                      : 1 080 pixels
    Display aspect ratio        : 16:9
    Frame rate mode             : Constant
    Frame rate                  : 23.976 (24000/1001) FPS
    Standard                    : NTSC
    Color space                 : YUV
    Chroma subsampling          : 4:2:0
    Bit depth                   : 8 bits
    Scan type                   : Progressive
    Bits/(Pixel*Frame)          : 0.563
    Stream size                 : 16.8 GiB (92%)
    Title                       : REMUX HD1080p [CinemaniaHDD]
    Default                     : Yes
    Forced                      : Yes
    Color range                 : Limited
    Color primaries             : BT.709
    Transfer characteristics    : BT.709
    Matrix coefficients         : BT.709
    Original source medium      : Blu-ray

    Audio
    ID                          : 2
    ID in the original source m : 4352 (0x1100)
    Format                      : DTS XLL
    Format/Info                 : Digital Theater Systems
    Commercial name             : DTS-HD Master Audio
    Codec ID                    : A_DTS
    Duration                    : 1 h 25 min
    Bit rate mode               : Variable
    Bit rate                    : 2 539 kb/s
    Channel(s)                  : 6 channels
    Channel layout              : C L R Ls Rs LFE
    Sampling rate               : 48.0 kHz
    Frame rate                  : 93.750 FPS (512 SPF)
    Bit depth                   : 16 bits
    Compression mode            : Lossless
    Stream size                 : 1.52 GiB (8%)
    Title                       : Ingles [CinemaniaHDD]
    Language                    : English
    Default                     : Yes
    Forced                      : Yes
    Original source medium      : Blu-ray

    Text #1
    ID                          : 3
    Format                      : UTF-8
    Codec ID                    : S_TEXT/UTF8
    Codec ID/Info               : UTF-8 Plain Text
    Duration                    : 1 h 17 min
    Bit rate                    : 39 b/s
    Count of elements           : 668
    Stream size                 : 22.2 KiB (0%)
    Title                       : Español-SRT [CinemaniaHDD
    Language                    : Spanish
    Default                     : Yes
    Forced                      : Yes

    Text #2
    ID                          : 4
    Format                      : UTF-8
    Codec ID                    : S_TEXT/UTF8
    Codec ID/Info               : UTF-8 Plain Text
    Duration                    : 1 h 17 min
    Bit rate                    : 36 b/s
    Count of elements           : 605
    Stream size                 : 20.4 KiB (0%)
    Title                       : Ingles-SRT [CinemaniaHDD
    Language                    : English
    Default                     : No
    Forced                      : No

    Menu
    00:00:00.000                : Chapter 01
    00:06:25.927                : Chapter 02
    00:13:56.794                : Chapter 03
    00:19:58.655                : Chapter 04
    00:25:48.588                : Chapter 05
    00:32:23.232                : Chapter 06
    00:39:00.880                : Chapter 07
    00:47:40.274                : Chapter 08
    00:57:16.224                : Chapter 09
    01:04:39.083                : Chapter 10
    01:11:55.769                : Chapter 11
    01:18:53.395                : Chapter 12

  • Peso: 18.3 GiB

Sinopsis

Descargar Imaginaerum (2012) REMUX 1080p SUB. Cuenta la historia de un viejo en el lecho de muerte que recupera un sueño de la infancia en el que se niega a envejecer, y combate el envejecimiento con su imaginación.

Disponible Solo Para VIP!!!

Ficha técnica

Video trailer de la película

Enlaces de descarga

Rip de Bluray

Descargar Imaginaerum (2012) REMUX 1080p SUB


Aportes de DPeliculasHDmega la pass es:dpeliculashdmega.org Aportes de CinemaniaHD la pass es:cinemaniahdd.com
Guardado en : Drama , Fantasía , Remux

Películas relacionadas

  • Togo (2022) NF WEB-DL 1080p Latino

    Togo (2022) NF WEB-DL 1080p Latino

    2022
    Togo (2022) NF WEB-DL 1080p Latino

    1h 35m 2022

    Descargar Togo (2022) NF WEB-DL 1080p Latino. Los narcos de poca monta están copando las calles de Montevideo...

    Director: Adrián Caetano

    Género: Crimen

    Actores: Tito Prieto

  • El Ultimo Juego (2021) WEB-DL 1080p Latino

    El Ultimo Juego (2021) WEB-DL 1080p Latino

    2021
    El Ultimo Juego (2021) WEB-DL 1080p Latino

    1h 21m 2021

    Descargar El Ultimo Juego (2021) WEB-DL 1080p Latino. 6 extraños se despiertan dentro de una habitación...

    Director: John David Moffat IV

    Género: Drama

    Actores: Yasmin Irvine

descargar Imaginaerum (2012) REMUX 1080p SUB Full 1080p 1080p gratis, Imaginaerum (2012) REMUX 1080p SUB Full 1080p mega 1 link, Imaginaerum (2012) REMUX 1080p SUB Full 1080p pelicula completa, descargar Imaginaerum (2012) REMUX 1080p SUB Full 1080p gratis en mega.

Imaginaerum (2012) REMUX 1080p SUB pelicula full hd, Imaginaerum (2012) REMUX 1080p SUB mega latino, Imaginaerum (2012) REMUX 1080p SUB 4k latino, Imaginaerum (2012) REMUX 1080p SUB pelicula completa, Imaginaerum (2012) REMUX 1080p SUB descargar gratis, descargar Imaginaerum (2012) REMUX 1080p SUB pelicula latino, Imaginaerum (2012) REMUX 1080p SUB 1 link mega, Imaginaerum (2012) REMUX 1080p SUB 1 link google drive, Imaginaerum (2012) REMUX 1080p SUB hd 1080p latino.
Comentarios 0