×

¿Problemas para descargar con Mozilla, EDGE? Deshabilita la opción "Abrir vinculos en una pestaña nueva" tal como lo muestra ésta imagen.

Imaginaerum (2012) Full HD 1080p SUB

152 vistas

Información de Imaginaerum (2012) Full HD 1080p SUB

Datos de la película

  • Calidad: Full 1080p
  • Audio: Ingles DTS 5.1 BLURAY
  • Subtitulos: Español Latino SRT - Ingles SRT
  • Resolución: 1920x1080p
  • Formato: MKV
  • Codec: H.264
  • Encoder: CinefiloCool
  • Mediainfo: Clic para Mostrar Datos Ver
  • Imaginaerum (2012) Full HD 1080p SUB-CMHDD.mkv
    Format                      : Matroska
    Format version              : Version 4
    File size                   : 2.84 GiB
    Duration                    : 1 h 25 min
    Overall bit rate            : 4 740 kb/s
    Movie name                  : Imaginaerum By Nightwish (2012) CinemaniaHDD.Net
    Encoded date                : UTC 2023-10-10 02:05:01
    Writing application         : mkvmerge v56.1.0 ('My Friend') 64-bit
    Writing library             : libebml v1.4.2 + libmatroska v1.6.4
    Attachments                 : CINEMANIAHD.png

    Video
    ID                          : 1
    Format                      : AVC
    Format/Info                 : Advanced Video Codec
    Format profile              : High@L4.1
    Format settings             : CABAC / 4 Ref Frames
    Format settings, CABAC      : Yes
    Format settings, Reference  : 4 frames
    Codec ID                    : V_MPEG4/ISO/AVC
    Duration                    : 1 h 25 min
    Bit rate                    : 3 228 kb/s
    Width                       : 1 920 pixels
    Height                      : 1 080 pixels
    Display aspect ratio        : 16:9
    Frame rate mode             : Constant
    Frame rate                  : 23.976 (24000/1001) FPS
    Color space                 : YUV
    Chroma subsampling          : 4:2:0
    Bit depth                   : 8 bits
    Scan type                   : Progressive
    Bits/(Pixel*Frame)          : 0.065
    Stream size                 : 1.93 GiB (68%)
    Title                       : Full HD1080p [CinemaniaHDD]
    Writing library             : x264 core 163 r3059 b684ebe0
    Encoding settings           : cabac=1 / ref=4 / deblock=1:0:0 / analyse=0x3:0x133 / me=tesa / subme=11 / psy=1 / psy_rd=1.00:0.00 / mixed_ref=1 / me_range=24 / chroma_me=1 / trellis=2 / 8x8dct=1 / cqm=0 / deadzone=21,11 / fast_pskip=0 / chroma_qp_offset=-2 / threads=24 / lookahead_threads=6 / sliced_threads=0 / nr=0 / decimate=1 / interlaced=0 / bluray_compat=0 / constrained_intra=0 / bframes=16 / b_pyramid=2 / b_adapt=2 / b_bias=0 / direct=3 / weightb=1 / open_gop=0 / weightp=2 / keyint=240 / keyint_min=24 / scenecut=40 / intra_refresh=0 / rc_lookahead=60 / rc=crf / mbtree=1 / crf=19.0 / qcomp=0.60 / qpmin=0 / qpmax=69 / qpstep=4 / vbv_maxrate=62500 / vbv_bufsize=78125 / crf_max=0.0 / nal_hrd=none / filler=0 / ip_ratio=1.40 / aq=1:1.00
    Default                     : Yes
    Forced                      : Yes
    Color range                 : Limited
    Color primaries             : BT.709
    Transfer characteristics    : BT.709
    Matrix coefficients         : BT.709

    Audio
    ID                          : 2
    Format                      : DTS
    Format/Info                 : Digital Theater Systems
    Codec ID                    : A_DTS
    Duration                    : 1 h 25 min
    Bit rate mode               : Constant
    Bit rate                    : 1 509 kb/s
    Channel(s)                  : 6 channels
    Channel layout              : C L R Ls Rs LFE
    Sampling rate               : 48.0 kHz
    Frame rate                  : 93.750 FPS (512 SPF)
    Bit depth                   : 24 bits
    Compression mode            : Lossy
    Stream size                 : 926 MiB (32%)
    Title                       : Ingles [CinemaniaHDD]
    Language                    : English
    Default                     : No
    Forced                      : No

    Text #1
    ID                          : 3
    Format                      : UTF-8
    Codec ID                    : S_TEXT/UTF8
    Codec ID/Info               : UTF-8 Plain Text
    Duration                    : 1 h 17 min
    Bit rate                    : 39 b/s
    Count of elements           : 668
    Stream size                 : 22.2 KiB (0%)
    Title                       : Español-SRT [CinemaniaHDD
    Language                    : Spanish
    Default                     : Yes
    Forced                      : Yes

    Text #2
    ID                          : 4
    Format                      : UTF-8
    Codec ID                    : S_TEXT/UTF8
    Codec ID/Info               : UTF-8 Plain Text
    Duration                    : 1 h 17 min
    Bit rate                    : 36 b/s
    Count of elements           : 605
    Stream size                 : 20.4 KiB (0%)
    Title                       : Ingles-SRT [CinemaniaHDD
    Language                    : English
    Default                     : No
    Forced                      : No

    Menu
    00:00:00.000                : Chapter 01
    00:06:25.927                : Chapter 02
    00:13:56.794                : Chapter 03
    00:19:58.655                : Chapter 04
    00:25:48.588                : Chapter 05
    00:32:23.232                : Chapter 06
    00:39:00.880                : Chapter 07
    00:47:40.274                : Chapter 08
    00:57:16.224                : Chapter 09
    01:04:39.083                : Chapter 10
    01:11:55.769                : Chapter 11
    01:18:53.395                : Chapter 12

  • Peso: 2.84 GiB

Sinopsis

Descargar Imaginaerum (2012) Full HD 1080p SUB. Cuenta la historia de un viejo en el lecho de muerte que recupera un sueño de la infancia en el que se niega a envejecer, y combate el envejecimiento con su imaginación.

Ficha técnica

Video trailer de la película

Enlaces de descarga

Rip de Bluray

Descargar Imaginaerum (2012) Full HD 1080p SUB




Aportes de DPeliculasHDmega la pass es:dpeliculashdmega.org Aportes de CinemaniaHD la pass es:cinemaniahdd.com Aportes recientes:cinemaniahdd.net

Películas relacionadas

descargar Imaginaerum (2012) Full HD 1080p SUB Full 1080p 1080p gratis, Imaginaerum (2012) Full HD 1080p SUB Full 1080p mega 1 link, Imaginaerum (2012) Full HD 1080p SUB Full 1080p pelicula completa, descargar Imaginaerum (2012) Full HD 1080p SUB Full 1080p gratis en mega.

Imaginaerum (2012) Full HD 1080p SUB pelicula full hd, Imaginaerum (2012) Full HD 1080p SUB mega latino, Imaginaerum (2012) Full HD 1080p SUB 4k latino, Imaginaerum (2012) Full HD 1080p SUB pelicula completa, Imaginaerum (2012) Full HD 1080p SUB descargar gratis, descargar Imaginaerum (2012) Full HD 1080p SUB pelicula latino, Imaginaerum (2012) Full HD 1080p SUB 1 link mega, Imaginaerum (2012) Full HD 1080p SUB 1 link google drive, Imaginaerum (2012) Full HD 1080p SUB hd 1080p latino.
Comentarios 0