×

¿Problemas para descargar con Mozilla, EDGE? Deshabilita la opción "Abrir vinculos en una pestaña nueva" tal como lo muestra ésta imagen.

I’m Your Woman (2020) AMZN WEB-DL 1080p Latino

243 vistas

Información de I’m Your Woman (2020) AMZN WEB-DL 1080p Latino

Datos de la película

  • Calidad: WEBDL
  • Audio: Español Latino E-AC3 5.1 AMAZON - Ingles E-AC3 5.1 AMAZON
  • Subtitulos: Español Latino SRT- FORZADOS SRT
  • Resolución: 1920x800
  • Formato: MKV
  • Codec: H.264
  • Encoder: cinemaniahdd
  • Mediainfo: Clic para Mostrar Datos Ver
  • I'm Your Woman (2020) AMZN WEB-DL 1080p Latino [CNMNHDD].mkv
    Format                      : Matroska
    Format version              : Version 4
    File size                   : 9.12 GiB
    Duration                    : 2 h 0 min
    Overall bit rate            : 10.8 Mb/s
    Movie name                  : I'm Your Woman (2020) - CinemaniaHDD.Net
    Encoded date                : UTC 2020-12-11 02:10:00
    Writing application         : mkvmerge v51.0.0 ('I Wish') 64-bit
    Writing library             : libebml v1.4.0 + libmatroska v1.6.2

    Video
    ID                          : 1
    Format                      : AVC
    Format/Info                 : Advanced Video Codec
    Format profile              : High@L4
    Format settings             : CABAC / 4 Ref Frames
    Format settings, CABAC      : Yes
    Format settings, Reference  : 4 frames
    Codec ID                    : V_MPEG4/ISO/AVC
    Duration                    : 2 h 0 min
    Bit rate mode               : Constant
    Bit rate                    : 8 281 kb/s
    Nominal bit rate            : 10 000 kb/s
    Width                       : 1 920 pixels
    Height                      : 800 pixels
    Display aspect ratio        : 2.40:1
    Frame rate mode             : Constant
    Frame rate                  : 23.976 (24000/1001) FPS
    Color space                 : YUV
    Chroma subsampling          : 4:2:0
    Bit depth                   : 8 bits
    Scan type                   : Progressive
    Bits/(Pixel*Frame)          : 0.225
    Stream size                 : 6.96 GiB (76%)
    Title                       : CinemaniaHDD
    Default                     : Yes
    Forced                      : No
    Color range                 : Limited
    Color primaries             : BT.709
    Transfer characteristics    : BT.709
    Matrix coefficients         : BT.709

    Audio #1
    ID                          : 2
    Format                      : AC-3
    Format/Info                 : Audio Coding 3
    Commercial name             : Dolby Digital
    Codec ID                    : A_AC3
    Duration                    : 2 h 0 min
    Bit rate mode               : Constant
    Bit rate                    : 640 kb/s
    Channel(s)                  : 6 channels
    Channel layout              : L R C LFE Ls Rs
    Sampling rate               : 48.0 kHz
    Frame rate                  : 31.250 FPS (1536 SPF)
    Compression mode            : Lossy
    Stream size                 : 551 MiB (6%)
    Title                       : Español latino - AC3 [CinemaniaHDD]
    Language                    : Spanish
    Service kind                : Complete Main
    Default                     : Yes
    Forced                      : No

    Audio #2
    ID                          : 3
    Format                      : E-AC-3
    Format/Info                 : Enhanced AC-3
    Commercial name             : Dolby Digital Plus
    Codec ID                    : A_EAC3
    Duration                    : 2 h 0 min
    Bit rate mode               : Constant
    Bit rate                    : 640 kb/s
    Channel(s)                  : 6 channels
    Channel layout              : L R C LFE Ls Rs
    Sampling rate               : 48.0 kHz
    Frame rate                  : 31.250 FPS (1536 SPF)
    Compression mode            : Lossy
    Stream size                 : 551 MiB (6%)
    Title                       : Español latino - E-AC3 [CinemaniaHDD]
    Language                    : Spanish
    Service kind                : Complete Main
    Default                     : No
    Forced                      : No

    Audio #3
    ID                          : 4
    Format                      : E-AC-3
    Format/Info                 : Enhanced AC-3
    Commercial name             : Dolby Digital Plus
    Codec ID                    : A_EAC3
    Duration                    : 2 h 0 min
    Bit rate mode               : Constant
    Bit rate                    : 640 kb/s
    Channel(s)                  : 6 channels
    Channel layout              : L R C LFE Ls Rs
    Sampling rate               : 48.0 kHz
    Frame rate                  : 31.250 FPS (1536 SPF)
    Compression mode            : Lossy
    Stream size                 : 551 MiB (6%)
    Title                       : Inglés - E-AC3 [CinemaniaHDD]
    Language                    : English
    Service kind                : Complete Main
    Default                     : No
    Forced                      : No

    Audio #4
    ID                          : 5
    Format                      : AC-3
    Format/Info                 : Audio Coding 3
    Commercial name             : Dolby Digital
    Codec ID                    : A_AC3
    Duration                    : 2 h 0 min
    Bit rate mode               : Constant
    Bit rate                    : 640 kb/s
    Channel(s)                  : 6 channels
    Channel layout              : L R C LFE Ls Rs
    Sampling rate               : 48.0 kHz
    Frame rate                  : 31.250 FPS (1536 SPF)
    Compression mode            : Lossy
    Stream size                 : 551 MiB (6%)
    Title                       : Inglés - AC3 [CinemaniaHDD]
    Language                    : English
    Service kind                : Complete Main
    Default                     : No
    Forced                      : No

    Text #1
    ID                          : 6
    Format                      : UTF-8
    Codec ID                    : S_TEXT/UTF8
    Codec ID/Info               : UTF-8 Plain Text
    Duration                    : 1 h 54 min
    Bit rate                    : 0 b/s
    Count of elements           : 15
    Stream size                 : 348 Bytes (0%)
    Title                       : Forzados [CinemaniaHDD]
    Language                    : Spanish
    Default                     : Yes
    Forced                      : Yes

    Text #2
    ID                          : 7
    Format                      : UTF-8
    Codec ID                    : S_TEXT/UTF8
    Codec ID/Info               : UTF-8 Plain Text
    Duration                    : 1 h 59 min
    Bit rate                    : 21 b/s
    Count of elements           : 731
    Stream size                 : 18.9 KiB (0%)
    Title                       : Español latino [CinemaniaHDD]
    Language                    : Spanish
    Default                     : No
    Forced                      : No

    Text #3
    ID                          : 8
    Format                      : UTF-8
    Codec ID                    : S_TEXT/UTF8
    Codec ID/Info               : UTF-8 Plain Text
    Duration                    : 1 h 59 min
    Bit rate                    : 39 b/s
    Count of elements           : 1417
    Stream size                 : 34.4 KiB (0%)
    Title                       : Inglés [CinemaniaHDD]
    Language                    : English
    Default                     : No
    Forced                      : No

    Menu
    00:00:00.000                : en:Amazon Original
    00:00:24.000                : en:Eddie and Jean
    00:03:46.000                : en:Jean holds the baby
    00:05:51.000                : en:Jean prepares breakfast
    00:08:18.000                : en:It's middle of the night
    00:11:49.000                : en:Jean worries about Eddie
    00:15:10.000                : en:Cal helps Jean
    00:17:45.000                : en:Cal feels something
    00:20:14.000                : en:A cop asks questions
    00:24:20.000                : en:Cal gives new rules
    00:28:09.000                : en:Jean lives quietly
    00:34:11.000                : en:Evelyn worries about Jean
    00:39:26.000                : en:Jean terrifies
    00:43:35.000                : en:Harry cries
    00:45:46.000                : en:Cal takes out Jean
    00:46:25.000                : en:Harry is hungry
    00:47:12.000                : en:Jean talks about Harry
    00:52:57.000                : en:Cal brings Jean to his place
    00:59:46.000                : en:Jean meets Teri
    01:04:47.000                : en:Art takes care of Harry
    01:06:57.000                : en:Having dinner
    01:08:58.000                : en:How to use a gun
    01:13:02.000                : en:Jean's decision
    01:16:42.000                : en:Jean gets in Teri's car
    01:19:24.000                : en:Jean figures it out something
    01:23:27.000                : en:Jean runs away
    01:25:11.000                : en:Rain starts
    01:27:15.000                : en:Teri tells truth
    01:32:34.000                : en:Jean and Teri wait
    01:34:26.000                : en:Jean talks to Cal
    01:37:51.000                : en:Car chase
    01:40:53.000                : en:Someone takes Jean
    01:44:29.000                : en:Jean comes back for Teri
    01:48:33.000                : en:Jean drives a car
    01:49:34.000                : en:Jean goes in the house
    01:53:48.000                : en:You're not supposed to look back
    01:55:11.000                : en:Title Sequence
    01:55:17.000                : en:End Credits

     

  • Peso: 9.12 GiB

Sinopsis

En este drama criminal de los años 70, una mujer se ve obligada a huir después de que su marido traiciona a sus socios, y la envía a ella y a su bebé en un viaje peligroso.

Ficha técnica

  • Titulo original: I'm Your Woman
  • Fecha de lanzamiento: 15-10-2020 (United States of America)
  • Director: Julia Hart
  • Género: Drama

Video trailer de la película

Enlaces de descarga

Rip de Bluray

Descargar I’m Your Woman (2020) AMZN WEB-DL 1080p Latino




Aportes de DPeliculasHDmega la pass es:dpeliculashdmega.org Aportes de CinemaniaHD la pass es:cinemaniahdd.com
Guardado en : Drama

Películas relacionadas

  • Blonde (2022) NF WEB-DL 1080p Latino

    Blonde (2022) NF WEB-DL 1080p Latino

    2022
    Blonde (2022) NF WEB-DL 1080p Latino

    2h 46m 2022

    Descargar Blonde (2022) NF WEB-DL 1080p Latino. Basada en el bestseller de la cinco veces finalista al...

    Director: Kristin Bree Calabrese

    Género: Drama

    Actores: Xavier Samuel

  • Infiniti (2022) Primera Temporada WEB-DL 1080p Latino

    Infiniti (2022) Primera Temporada WEB-DL 1080p Latino

    2022
    Infiniti (2022) Primera Temporada WEB-DL 1080p Latino

    0h 52m 2022

    La ISS, la Estación Espacial Internacional se ha quedado en silencio. La tripulación está en peligro....

    Director: Stéphane Pannetier

    Género: Drama

    Actores: Vlad Ivanov

  • Athena (2022) NF WEB-DL 1080p Latino

    Athena (2022) NF WEB-DL 1080p Latino

    2022
    Athena (2022) NF WEB-DL 1080p Latino

    1h 37m 2022

    Descargar Athena (2022) NF WEB-DL 1080p Latino. Horas después de la trágica muerte de su hermano menor...

    Director: Romain Gavras

    Género: Acción

    Actores: Tarek Haddaji

descargar I’m Your Woman (2020) AMZN WEB-DL 1080p Latino WEBDL 1080p gratis, I’m Your Woman (2020) AMZN WEB-DL 1080p Latino WEBDL mega 1 link, I’m Your Woman (2020) AMZN WEB-DL 1080p Latino WEBDL pelicula completa, descargar I’m Your Woman (2020) AMZN WEB-DL 1080p Latino WEBDL gratis en mega.

I’m Your Woman (2020) AMZN WEB-DL 1080p Latino pelicula full hd, I’m Your Woman (2020) AMZN WEB-DL 1080p Latino mega latino, I’m Your Woman (2020) AMZN WEB-DL 1080p Latino 4k latino, I’m Your Woman (2020) AMZN WEB-DL 1080p Latino pelicula completa, I’m Your Woman (2020) AMZN WEB-DL 1080p Latino descargar gratis, descargar I’m Your Woman (2020) AMZN WEB-DL 1080p Latino pelicula latino, I’m Your Woman (2020) AMZN WEB-DL 1080p Latino 1 link mega, I’m Your Woman (2020) AMZN WEB-DL 1080p Latino 1 link google drive, I’m Your Woman (2020) AMZN WEB-DL 1080p Latino hd 1080p latino.
Comentarios 0