×

¿Problemas para descargar con Mozilla, EDGE? Deshabilita la opción "Abrir vinculos en una pestaña nueva" tal como lo muestra ésta imagen.

Ice Age 3 Dawn of the Dinosaurs (2009) WEB-DL 4K HDR Latino – CMHDD

72 vistas

Información de Ice Age 3 Dawn of the Dinosaurs (2009) WEB-DL 4K HDR Latino – CMHDD

Datos de la película

  • Calidad: 4K HDR
  • Audio: Español Latino AC3 5.1 WEB-DL - Ingles AC3 5.1 WEB-DL
  • Subtitulos: Español Latino SRT- FORZADOS SRT
  • Resolución: 3840x2160p
  • Formato: MKV
  • Codec: H.264
  • Encoder: Dracarys
  • Mediainfo: Clic para Mostrar Datos Ver
  • Format                      : Matroska
    Format version              : Version 4
    File size                   : 11.4 GiB
    Duration                    : 1 h 34 min
    Overall bit rate            : 17.4 Mb/s
    Movie name                  : Ice Age: Dawn of the Dinosaurs (2009) WEB-DL 4K HDR Latino - CMHDD
    Encoded date                : UTC 2024-01-15 00:12:27
    Writing application         : mkvmerge v47.0.0 ('Black Flag') 64-bit
    Writing library             : libebml v1.3.10 + libmatroska v1.5.2

    Video
    ID                          : 1
    Format                      : HEVC
    Format/Info                 : High Efficiency Video Coding
    Format profile              : Main 10@L5@High
    HDR format                  : SMPTE ST 2086, HDR10 compatible
    Codec ID                    : V_MPEGH/ISO/HEVC
    Duration                    : 1 h 34 min
    Bit rate                    : 16.7 Mb/s
    Width                       : 3 840 pixels
    Height                      : 2 160 pixels
    Display aspect ratio        : 16:9
    Frame rate mode             : Constant
    Frame rate                  : 23.976 (24000/1001) FPS
    Color space                 : YUV
    Chroma subsampling          : 4:2:0
    Bit depth                   : 10 bits
    Bits/(Pixel*Frame)          : 0.084
    Stream size                 : 10.9 GiB (96%)
    Language                    : English
    Default                     : Yes
    Forced                      : No
    Color range                 : Limited
    Color primaries             : BT.2020
    Transfer characteristics    : PQ
    Matrix coefficients         : BT.2020 non-constant
    Mastering display color pri : Display P3
    Mastering display luminance : min: 0.0001 cd/m2, max: 1000 cd/m2

    Audio #1
    ID                          : 2
    Format                      : AC-3
    Format/Info                 : Audio Coding 3
    Commercial name             : Dolby Digital
    Codec ID                    : A_AC3
    Duration                    : 1 h 34 min
    Bit rate mode               : Constant
    Bit rate                    : 448 kb/s
    Channel(s)                  : 6 channels
    Channel layout              : L R C LFE Ls Rs
    Sampling rate               : 48.0 kHz
    Frame rate                  : 31.250 FPS (1536 SPF)
    Compression mode            : Lossy
    Delay relative to video     : 24 ms
    Stream size                 : 301 MiB (3%)
    Language                    : Spanish
    Service kind                : Complete Main
    Default                     : Yes
    Forced                      : Yes

    Audio #2
    ID                          : 3
    Format                      : E-AC-3
    Format/Info                 : Enhanced AC-3
    Commercial name             : Dolby Digital Plus
    Codec ID                    : A_EAC3
    Duration                    : 1 h 34 min
    Bit rate mode               : Constant
    Bit rate                    : 256 kb/s
    Channel(s)                  : 6 channels
    Channel layout              : L R C LFE Ls Rs
    Sampling rate               : 48.0 kHz
    Frame rate                  : 31.250 FPS (1536 SPF)
    Compression mode            : Lossy
    Stream size                 : 172 MiB (1%)
    Language                    : English
    Service kind                : Complete Main
    Default                     : No
    Forced                      : No

    Text #1
    ID                          : 4
    Format                      : UTF-8
    Codec ID                    : S_TEXT/UTF8
    Codec ID/Info               : UTF-8 Plain Text
    Duration                    : 19 min 49 s
    Bit rate                    : 0 b/s
    Frame rate                  : 0.002 FPS
    Count of elements           : 2
    Stream size                 : 87.0 Bytes (0%)
    Title                       : Forzados
    Language                    : Spanish
    Default                     : Yes
    Forced                      : Yes

    Text #2
    ID                          : 5
    Format                      : UTF-8
    Codec ID                    : S_TEXT/UTF8
    Codec ID/Info               : UTF-8 Plain Text
    Duration                    : 1 h 23 min
    Bit rate                    : 41 b/s
    Frame rate                  : 0.163 FPS
    Count of elements           : 813
    Stream size                 : 25.2 KiB (0%)
    Language                    : Spanish
    Default                     : No
    Forced                      : No

     

  • Peso: 11.4 GiB

Sinopsis

Tercera parte de las aventuras de Diego, Scrat y compañía. En esta ocasión, les tocará lidiar con varios dinosaurios. Scrat sigue intentando apoderarse de la muy escurridiza bellota; Manny y Ellie esperan el nacimiento de su mini-mamut; Sid, el perezoso, se mete en un buen lío al formar de repente una familia propia tras encontrarse unos huevos de dinosaurio.

Ficha técnica

Video trailer de la película

Enlaces de descarga

Rip de Bluray

Descargar Ice Age 3 Dawn of the Dinosaurs (2009) WEB-DL 4K HDR Latino – CMHDD




Aportes de DPeliculasHDmega la pass es:dpeliculashdmega.org Aportes de CinemaniaHD la pass es:cinemaniahdd.com Aportes recientes:cinemaniahdd.net
Guardado en : Animación , Aventura , Comedia , Familia

Películas relacionadas

descargar Ice Age 3 Dawn of the Dinosaurs (2009) WEB-DL 4K HDR Latino – CMHDD 4K HDR 1080p gratis, Ice Age 3 Dawn of the Dinosaurs (2009) WEB-DL 4K HDR Latino – CMHDD 4K HDR mega 1 link, Ice Age 3 Dawn of the Dinosaurs (2009) WEB-DL 4K HDR Latino – CMHDD 4K HDR pelicula completa, descargar Ice Age 3 Dawn of the Dinosaurs (2009) WEB-DL 4K HDR Latino – CMHDD 4K HDR gratis en mega.

Ice Age 3 Dawn of the Dinosaurs (2009) WEB-DL 4K HDR Latino – CMHDD pelicula full hd, Ice Age 3 Dawn of the Dinosaurs (2009) WEB-DL 4K HDR Latino – CMHDD mega latino, Ice Age 3 Dawn of the Dinosaurs (2009) WEB-DL 4K HDR Latino – CMHDD 4k latino, Ice Age 3 Dawn of the Dinosaurs (2009) WEB-DL 4K HDR Latino – CMHDD pelicula completa, Ice Age 3 Dawn of the Dinosaurs (2009) WEB-DL 4K HDR Latino – CMHDD descargar gratis, descargar Ice Age 3 Dawn of the Dinosaurs (2009) WEB-DL 4K HDR Latino – CMHDD pelicula latino, Ice Age 3 Dawn of the Dinosaurs (2009) WEB-DL 4K HDR Latino – CMHDD 1 link mega, Ice Age 3 Dawn of the Dinosaurs (2009) WEB-DL 4K HDR Latino – CMHDD 1 link google drive, Ice Age 3 Dawn of the Dinosaurs (2009) WEB-DL 4K HDR Latino – CMHDD hd 1080p latino.
Comentarios 0