×

¿Problemas para descargar con Mozilla, EDGE? Deshabilita la opción "Abrir vinculos en una pestaña nueva" tal como lo muestra ésta imagen.

I Want You Back (2022) AMZN WEB-DL 1080p Latino

297 vistas

Información de I Want You Back (2022) AMZN WEB-DL 1080p Latino

Datos de la película

  • Calidad: 1080p
  • Audio: Español Latino AC3 5.1 WEB-DL - Ingles AC3 5.1 WEB-DL
  • Subtitulos: Español Latino SRT- FORZADOS SRT
  • Resolución: 1920x960
  • Formato: MKV
  • Codec: H.264
  • Encoder: cinemaniahdd
  • Mediainfo: Clic para Mostrar Datos Ver
  • I Want You Back (2022) AMZN WEB-DL 1080p Latino [CNMNHDD].mkv
    Format                      : Matroska
    Format version              : Version 4
    File size                   : 8.09 GiB
    Duration                    : 1 h 56 min
    Overall bit rate            : 9 906 kb/s
    Movie name                  : I Want You Back (2022) - CinemaniaHDD.Net
    Encoded date                : UTC 2022-02-11 00:16:12
    Writing application         : mkvmerge v56.1.0 ('My Friend') 64-bit
    Writing library             : libebml v1.4.2 + libmatroska v1.6.4

    Video
    ID                          : 1
    Format                      : AVC
    Format/Info                 : Advanced Video Codec
    Format profile              : High@L4
    Format settings             : CABAC / 4 Ref Frames
    Format settings, CABAC      : Yes
    Format settings, Reference  : 4 frames
    Codec ID                    : V_MPEG4/ISO/AVC
    Duration                    : 1 h 56 min
    Bit rate mode               : Constant
    Bit rate                    : 7 983 kb/s
    Nominal bit rate            : 10 000 kb/s
    Width                       : 1 920 pixels
    Height                      : 960 pixels
    Display aspect ratio        : 2.000
    Frame rate mode             : Constant
    Frame rate                  : 24.000 FPS
    Color space                 : YUV
    Chroma subsampling          : 4:2:0
    Bit depth                   : 8 bits
    Scan type                   : Progressive
    Bits/(Pixel*Frame)          : 0.180
    Stream size                 : 6.52 GiB (81%)
    Title                       : CinemaniaHDD
    Default                     : Yes
    Forced                      : No
    Color range                 : Limited
    Color primaries             : BT.709
    Transfer characteristics    : BT.709
    Matrix coefficients         : BT.709

    Audio #1
    ID                          : 2
    Format                      : AC-3
    Format/Info                 : Audio Coding 3
    Commercial name             : Dolby Digital
    Codec ID                    : A_AC3
    Duration                    : 1 h 56 min
    Bit rate mode               : Constant
    Bit rate                    : 640 kb/s
    Channel(s)                  : 6 channels
    Channel layout              : L R C LFE Ls Rs
    Sampling rate               : 48.0 kHz
    Frame rate                  : 31.250 FPS (1536 SPF)
    Compression mode            : Lossy
    Stream size                 : 535 MiB (6%)
    Title                       : Español latino [CinemaniaHDD]
    Language                    : Spanish
    Service kind                : Complete Main
    Default                     : Yes
    Forced                      : No

    Audio #2
    ID                          : 3
    Format                      : E-AC-3
    Format/Info                 : Enhanced AC-3
    Commercial name             : Dolby Digital Plus
    Codec ID                    : A_EAC3
    Duration                    : 1 h 56 min
    Bit rate mode               : Constant
    Bit rate                    : 640 kb/s
    Channel(s)                  : 6 channels
    Channel layout              : L R C LFE Ls Rs
    Sampling rate               : 48.0 kHz
    Frame rate                  : 31.250 FPS (1536 SPF)
    Compression mode            : Lossy
    Stream size                 : 535 MiB (6%)
    Title                       : Español latino / E-AC3 [CinemaniaHDD]
    Language                    : Spanish
    Service kind                : Complete Main
    Default                     : No
    Forced                      : No

    Audio #3
    ID                          : 4
    Format                      : E-AC-3
    Format/Info                 : Enhanced AC-3
    Commercial name             : Dolby Digital Plus
    Codec ID                    : A_EAC3
    Duration                    : 1 h 56 min
    Bit rate mode               : Constant
    Bit rate                    : 640 kb/s
    Channel(s)                  : 6 channels
    Channel layout              : L R C LFE Ls Rs
    Sampling rate               : 48.0 kHz
    Frame rate                  : 31.250 FPS (1536 SPF)
    Compression mode            : Lossy
    Stream size                 : 535 MiB (6%)
    Title                       : Inglés [CinemaniaHDD]
    Language                    : English
    Service kind                : Complete Main
    Default                     : No
    Forced                      : No

    Text #1
    ID                          : 5
    Format                      : UTF-8
    Codec ID                    : S_TEXT/UTF8
    Codec ID/Info               : UTF-8 Plain Text
    Duration                    : 1 h 27 min
    Bit rate                    : 0 b/s
    Count of elements           : 17
    Stream size                 : 463 Bytes (0%)
    Title                       : Forzados [CinemaniaHDD]
    Language                    : Spanish
    Default                     : Yes
    Forced                      : Yes

    Text #2
    ID                          : 6
    Format                      : UTF-8
    Codec ID                    : S_TEXT/UTF8
    Codec ID/Info               : UTF-8 Plain Text
    Duration                    : 1 h 54 min
    Bit rate                    : 68 b/s
    Count of elements           : 1922
    Stream size                 : 57.2 KiB (0%)
    Title                       : Español latino [CinemaniaHDD]
    Language                    : Spanish
    Default                     : No
    Forced                      : No

    Menu
    00:00:00.000                : Amazon Studios
    00:00:21.000                : Studio Logo
    00:00:34.000                : Scene 3
    00:03:17.000                : Scene 4
    00:04:02.000                : Scene 5
    00:05:29.000                : Scene 6
    00:06:00.000                : Scene 7
    00:06:48.000                : Title Sequence
    00:07:03.000                : Scene 9
    00:09:20.000                : Scene 10
    00:11:24.000                : Scene 11
    00:16:53.000                : Scene 12
    00:18:04.000                : Scene 13
    00:21:52.000                : Scene 14
    00:26:47.000                : Scene 15
    00:28:51.000                : Scene 16
    00:30:52.000                : Scene 17
    00:33:15.000                : Scene 18
    00:35:44.000                : Scene 19
    00:37:10.000                : Scene 20
    00:37:39.000                : Scene 21
    00:40:47.000                : Scene 22
    00:43:55.000                : Scene 23
    00:47:46.000                : Scene 24
    00:48:36.000                : Scene 25
    00:49:38.000                : Scene 26
    00:51:55.000                : Scene 27
    00:56:25.000                : Scene 28
    00:57:40.000                : Scene 29
    00:59:31.000                : Scene 30
    01:06:22.000                : Scene 31
    01:09:53.000                : Scene 32
    01:14:11.000                : Scene 33
    01:15:31.000                : Scene 34
    01:16:37.000                : Scene 35
    01:18:04.000                : Scene 36
    01:19:17.000                : Scene 37
    01:21:30.000                : Scene 38
    01:23:40.000                : Scene 39
    01:24:17.000                : Scene 40
    01:26:52.000                : Scene 41
    01:27:17.000                : Scene 42
    01:29:40.000                : Scene 43
    01:31:06.000                : Scene 44
    01:33:50.000                : Scene 45
    01:36:14.000                : Scene 46
    01:38:15.000                : Scene 47
    01:40:25.000                : Scene 48
    01:41:24.000                : Scene 49
    01:44:48.000                : Scene 50
    01:47:12.000                : Scene 51
    01:48:59.000                : Scene 52
    01:49:07.000                : Scene 53
    01:50:56.000                : End Credits

     

  • Peso: 8.09 GiB

Sinopsis

Peter (Charlie Day) y Emma (Jenny Slate) creían estar llegando al momento más importante de sus vidas: matrimonio, hijos y casas en las afueras, hasta que sus respectivas parejas les abandonan. Horrorizados al ver que los amores de sus vidas han pasado página, Peter y Emma traman un divertido plan para recuperar a sus ex, con resultados inesperados.

Ficha técnica

  • Titulo original: I Want You Back
  • Fecha de lanzamiento: 10-02-2022 (United States of America)
  • Director: Jason Orley
  • Género: Comedia, Romance

Video trailer de la película

Enlaces de descarga

Rip de Bluray

Descargar I Want You Back (2022) AMZN WEB-DL 1080p Latino




Aportes de DPeliculasHDmega la pass es:dpeliculashdmega.org Aportes de CinemaniaHD la pass es:cinemaniahdd.com
Guardado en : Comedia , Romance

Películas relacionadas

  • Tren Bala (2022) WEB-DL 4K UHD HDR Latino

    Tren Bala (2022) WEB-DL 4K UHD HDR Latino

    2022
    Tren Bala (2022) WEB-DL 4K UHD HDR Latino

    2h 7m 2022

    Descargar Tren Bala (2022) WEB-DL 4K UHD HDR Latino. El desafortunado asesino "Catarina" está decidido...

    Director: Paul Barry

    Género: 4K HDR

    Actores: Zooey Miyoshi

  • Tren Bala (2022) AMZN WEB-DL 1080p Latino

    Tren Bala (2022) AMZN WEB-DL 1080p Latino

    2022
    Tren Bala (2022) AMZN WEB-DL 1080p Latino

    2h 7m 2022

    Descargar Tren Bala (2022) AMZN WEB-DL 1080p Latino. Cinco asesinos a sueldo se encuentran a bordo de...

    Director: Paul Barry

    Género: Acción

    Actores: Zooey Miyoshi

  • Rick y Morty (2022) Temporada 6 WEB-DL 1080p Latino

    Rick y Morty (2022) Temporada 6 WEB-DL 1080p Latino

    2013
    Rick y Morty (2022) Temporada 6 WEB-DL 1080p Latino

    0h 22m 2013

    Comedia animada que narra las aventuras de un científico loco Rick Sánchez, que regresa después de...

    Director: Justin Roiland

    Género: Action & Adventure

    Actores: Spencer Grammer

descargar I Want You Back (2022) AMZN WEB-DL 1080p Latino 1080p 1080p gratis, I Want You Back (2022) AMZN WEB-DL 1080p Latino 1080p mega 1 link, I Want You Back (2022) AMZN WEB-DL 1080p Latino 1080p pelicula completa, descargar I Want You Back (2022) AMZN WEB-DL 1080p Latino 1080p gratis en mega.

I Want You Back (2022) AMZN WEB-DL 1080p Latino pelicula full hd, I Want You Back (2022) AMZN WEB-DL 1080p Latino mega latino, I Want You Back (2022) AMZN WEB-DL 1080p Latino 4k latino, I Want You Back (2022) AMZN WEB-DL 1080p Latino pelicula completa, I Want You Back (2022) AMZN WEB-DL 1080p Latino descargar gratis, descargar I Want You Back (2022) AMZN WEB-DL 1080p Latino pelicula latino, I Want You Back (2022) AMZN WEB-DL 1080p Latino 1 link mega, I Want You Back (2022) AMZN WEB-DL 1080p Latino 1 link google drive, I Want You Back (2022) AMZN WEB-DL 1080p Latino hd 1080p latino.
Comentarios 0