×

¿Problemas para descargar con Mozilla, EDGE? Deshabilita la opción "Abrir vinculos en una pestaña nueva" tal como lo muestra ésta imagen.

I Used to Go Here (2020) WEB-DL 1080p Latino

235 vistas

Información de I Used to Go Here (2020) WEB-DL 1080p Latino

Datos de la película

  • Calidad: WEBDL
  • Audio: Español Latino AC3 2.0 WEB-DL - Ingles AC3 5.1 WEB-DL
  • Subtitulos: Español Latino SRT- FORZADOS SRT
  • Resolución: 1920x1080
  • Formato: MKV
  • Codec: H.264
  • Encoder: cinemaniahdd
  • Mediainfo: Clic para Mostrar Datos Ver
  • I Used to Go Here (2020) WEB-DL 1080p Latino [CNMNHDD].mkv
    Format                      : Matroska
    Format version              : Version 4
    File size                   : 5.43 GiB
    Duration                    : 1 h 27 min
    Overall bit rate mode       : Variable
    Overall bit rate            : 8 860 kb/s
    Movie name                  : I Used to Go Here (2020) - CinemaniaHDD.Net
    Encoded date                : UTC 2020-12-25 05:37:55
    Writing application         : mkvmerge v51.0.0 ('I Wish') 64-bit
    Writing library             : libebml v1.4.0 + libmatroska v1.6.2

    Video
    ID                          : 1
    Format                      : AVC
    Format/Info                 : Advanced Video Codec
    Format profile              : High@L4
    Format settings             : CABAC / 4 Ref Frames
    Format settings, CABAC      : Yes
    Format settings, Reference  : 4 frames
    Codec ID                    : V_MPEG4/ISO/AVC
    Duration                    : 1 h 27 min
    Bit rate mode               : Variable
    Bit rate                    : 8 218 kb/s
    Maximum bit rate            : 12.4 Mb/s
    Width                       : 1 920 pixels
    Height                      : 1 080 pixels
    Display aspect ratio        : 16:9
    Frame rate mode             : Constant
    Frame rate                  : 23.976 (24000/1001) FPS
    Color space                 : YUV
    Chroma subsampling          : 4:2:0
    Bit depth                   : 8 bits
    Scan type                   : Progressive
    Bits/(Pixel*Frame)          : 0.165
    Stream size                 : 5.04 GiB (93%)
    Title                       : CinemaniaHDD
    Language                    : English
    Default                     : Yes
    Forced                      : No
    Color range                 : Limited
    Color primaries             : BT.709
    Transfer characteristics    : BT.709
    Matrix coefficients         : BT.709

    Audio #1
    ID                          : 2
    Format                      : AC-3
    Format/Info                 : Audio Coding 3
    Commercial name             : Dolby Digital
    Codec ID                    : A_AC3
    Duration                    : 1 h 27 min
    Bit rate mode               : Constant
    Bit rate                    : 256 kb/s
    Channel(s)                  : 2 channels
    Channel layout              : L R
    Sampling rate               : 48.0 kHz
    Frame rate                  : 31.250 FPS (1536 SPF)
    Compression mode            : Lossy
    Stream size                 : 161 MiB (3%)
    Title                       : Español latino [CinemaniaHDD]
    Language                    : Spanish
    Service kind                : Complete Main
    Default                     : Yes
    Forced                      : No

    Audio #2
    ID                          : 3
    Format                      : AC-3
    Format/Info                 : Audio Coding 3
    Commercial name             : Dolby Digital
    Codec ID                    : A_AC3
    Duration                    : 1 h 27 min
    Bit rate mode               : Constant
    Bit rate                    : 384 kb/s
    Channel(s)                  : 6 channels
    Channel layout              : L R C LFE Ls Rs
    Sampling rate               : 48.0 kHz
    Frame rate                  : 31.250 FPS (1536 SPF)
    Compression mode            : Lossy
    Stream size                 : 241 MiB (4%)
    Title                       : Inglés [CinemaniaHDD]
    Language                    : English
    Service kind                : Complete Main
    Default                     : No
    Forced                      : No

    Text #1
    ID                          : 4
    Format                      : UTF-8
    Codec ID                    : S_TEXT/UTF8
    Codec ID/Info               : UTF-8 Plain Text
    Duration                    : 1 h 18 min
    Bit rate                    : 1 b/s
    Count of elements           : 40
    Stream size                 : 870 Bytes (0%)
    Title                       : Forzados [CinemaniaHDD]
    Language                    : Spanish
    Default                     : Yes
    Forced                      : Yes

    Text #2
    ID                          : 5
    Format                      : UTF-8
    Codec ID                    : S_TEXT/UTF8
    Codec ID/Info               : UTF-8 Plain Text
    Duration                    : 1 h 20 min
    Bit rate                    : 66 b/s
    Count of elements           : 1736
    Stream size                 : 39.3 KiB (0%)
    Title                       : Español latino [CC] [CinemaniaHDD]
    Language                    : Spanish
    Default                     : No
    Forced                      : No

    Text #3
    ID                          : 6
    Format                      : UTF-8
    Codec ID                    : S_TEXT/UTF8
    Codec ID/Info               : UTF-8 Plain Text
    Duration                    : 1 h 27 min
    Bit rate                    : 71 b/s
    Count of elements           : 2011
    Stream size                 : 45.8 KiB (0%)
    Title                       : Inglés [CC] [CinemaniaHDD]
    Language                    : English
    Default                     : No
    Forced                      : No

     

  • Peso: 5.43 GiB

Sinopsis

Tras el lanzamiento de su nueva novela, la escritora de 35 años Kate Conklin (Gillian Jacobs) es invitada a hablar en su alma máter por su mentor y ex profesor (Jemaine Clement). Después de aceptar la invitación, Kate se encuentra profundamente atrapada en las vidas de un grupo excéntrico de estudiantes universitarios.

Ficha técnica

Video trailer de la película

Enlaces de descarga

Rip de Bluray

Descargar I Used to Go Here (2020) WEB-DL 1080p Latino




Aportes de DPeliculasHDmega la pass es:dpeliculashdmega.org Aportes de CinemaniaHD la pass es:cinemaniahdd.com
Guardado en : Drama , Comedia , Romance

Películas relacionadas

descargar I Used to Go Here (2020) WEB-DL 1080p Latino WEBDL 1080p gratis, I Used to Go Here (2020) WEB-DL 1080p Latino WEBDL mega 1 link, I Used to Go Here (2020) WEB-DL 1080p Latino WEBDL pelicula completa, descargar I Used to Go Here (2020) WEB-DL 1080p Latino WEBDL gratis en mega.

I Used to Go Here (2020) WEB-DL 1080p Latino pelicula full hd, I Used to Go Here (2020) WEB-DL 1080p Latino mega latino, I Used to Go Here (2020) WEB-DL 1080p Latino 4k latino, I Used to Go Here (2020) WEB-DL 1080p Latino pelicula completa, I Used to Go Here (2020) WEB-DL 1080p Latino descargar gratis, descargar I Used to Go Here (2020) WEB-DL 1080p Latino pelicula latino, I Used to Go Here (2020) WEB-DL 1080p Latino 1 link mega, I Used to Go Here (2020) WEB-DL 1080p Latino 1 link google drive, I Used to Go Here (2020) WEB-DL 1080p Latino hd 1080p latino.
Comentarios 0