×

¿Problemas para descargar con Mozilla, EDGE? Deshabilita la opción "Abrir vinculos en una pestaña nueva" tal como lo muestra ésta imagen.

I Think We’re Alone Now (2018) REMUX 1080p Latino

275 vistas

Información de I Think We’re Alone Now (2018) REMUX 1080p Latino

Datos de la película

  • Calidad: Full 1080p
  • Audio: Español Latino AC3 5.1 iTUNES - Ingles DTS 5.1 BLURAY
  • Subtitulos: Español Latino SRT
  • Resolución: 1920x1080p
  • Formato: MKV
  • Codec: H.264
  • Encoder: CinemaniaHD
  • Mediainfo: Clic para Mostrar Datos Ver
  • I Think We're Alone Now (2018) REMUX 1080p Latino.mkv
    Format                      : Matroska
    Format version              : Version 4
    File size                   : 24.2 GiB
    Duration                    : 1 h 39 min
    Overall bit rate mode       : Variable
    Overall bit rate            : 35.0 Mb/s
    Encoded date                : UTC 2020-07-16 18:41:23
    Writing application         : mkvmerge v46.0.0 ('No Deeper Escape') 64-bit
    Writing library             : libebml v1.3.10 + libmatroska v1.5.2

    Video
    ID                          : 1
    Format                      : AVC
    Format/Info                 : Advanced Video Codec
    Format profile              : High@L4.1
    Format settings             : CABAC / 4 Ref Frames
    Format settings, CABAC      : Yes
    Format settings, Reference  : 4 frames
    Codec ID                    : V_MPEG4/ISO/AVC
    Duration                    : 1 h 39 min
    Bit rate mode               : Variable
    Bit rate                    : 30.0 Mb/s
    Maximum bit rate            : 35.0 Mb/s
    Width                       : 1 920 pixels
    Height                      : 1 080 pixels
    Display aspect ratio        : 16:9
    Frame rate mode             : Constant
    Frame rate                  : 23.976 (24000/1001) FPS
    Standard                    : NTSC
    Color space                 : YUV
    Chroma subsampling          : 4:2:0
    Bit depth                   : 8 bits
    Scan type                   : Progressive
    Bits/(Pixel*Frame)          : 0.603
    Stream size                 : 20.8 GiB (86%)
    Language                    : English
    Default                     : Yes
    Forced                      : No
    Color range                 : Limited
    Color primaries             : BT.709
    Transfer characteristics    : BT.709
    Matrix coefficients         : BT.709

    Audio #1
    ID                          : 2
    Format                      : AC-3
    Format/Info                 : Audio Coding 3
    Commercial name             : Dolby Digital
    Codec ID                    : A_AC3
    Duration                    : 1 h 38 min
    Bit rate mode               : Constant
    Bit rate                    : 384 kb/s
    Channel(s)                  : 6 channels
    Channel layout              : L R C LFE Ls Rs
    Sampling rate               : 48.0 kHz
    Frame rate                  : 31.250 FPS (1536 SPF)
    Compression mode            : Lossy
    Delay relative to video     : 953 ms
    Stream size                 : 272 MiB (1%)
    Language                    : Spanish
    Service kind                : Complete Main
    Default                     : Yes
    Forced                      : Yes

    Audio #2
    ID                          : 3
    Format                      : AC-3
    Format/Info                 : Audio Coding 3
    Commercial name             : Dolby Digital
    Codec ID                    : A_AC3
    Duration                    : 1 h 39 min
    Bit rate mode               : Constant
    Bit rate                    : 640 kb/s
    Channel(s)                  : 6 channels
    Channel layout              : L R C LFE Ls Rs
    Sampling rate               : 48.0 kHz
    Frame rate                  : 31.250 FPS (1536 SPF)
    Compression mode            : Lossy
    Stream size                 : 454 MiB (2%)
    Language                    : English
    Service kind                : Complete Main
    Default                     : No
    Forced                      : No

    Audio #3
    ID                          : 4
    Format                      : MLP FBA 16-ch
    Format/Info                 : Meridian Lossless Packing FBA with 16-channel presentation
    Commercial name             : Dolby TrueHD with Dolby Atmos
    Codec ID                    : A_TRUEHD
    Duration                    : 1 h 39 min
    Bit rate mode               : Variable
    Bit rate                    : 3 896 kb/s
    Maximum bit rate            : 6 630 kb/s
    Channel(s)                  : 8 channels
    Channel layout              : L R C LFE Ls Rs Lb Rb
    Sampling rate               : 48.0 kHz
    Frame rate                  : 1 200.000 FPS (40 SPF)
    Compression mode            : Lossless
    Stream size                 : 2.70 GiB (11%)
    Language                    : English
    Default                     : No
    Forced                      : No
    Number of dynamic objects   : 11
    Bed channel count           : 1 channel
    Bed channel configuration   : LFE

    Text
    ID                          : 5
    Format                      : UTF-8
    Codec ID                    : S_TEXT/UTF8
    Codec ID/Info               : UTF-8 Plain Text
    Duration                    : 1 h 20 min
    Bit rate                    : 19 b/s
    Count of elements           : 457
    Stream size                 : 11.5 KiB (0%)
    Language                    : Spanish
    Default                     : No
    Forced                      : No

    Menu
    00:00:00.000                : en:Chapter 1
    00:04:48.580                : en:Chapter 2
    00:10:57.407                : en:Chapter 3
    00:17:14.450                : en:Chapter 4
    00:23:01.755                : en:Chapter 5
    00:29:39.403                : en:Chapter 6
    00:36:45.787                : en:Chapter 7
    00:43:04.707                : en:Chapter 8
    00:48:05.800                : en:Chapter 9
    00:53:10.938                : en:Chapter 10
    00:59:09.921                : en:Chapter 11
    01:05:52.073                : en:Chapter 12
    01:11:50.348                : en:Chapter 13
    01:18:23.157                : en:Chapter 14
    01:26:04.576                : en:Chapter 15
    01:33:41.616                : en:Chapter 16

  • Peso: 24.2 GiB

Sinopsis

El apocalipsis se muestra como una bendición oculta para un afortunado recluso, hasta que un segundo superviviente llega con la amenaza de hacerle compañía.

Ficha técnica

Video trailer de la película

Enlaces de descarga

Rip de Bluray

Descargar I Think We’re Alone Now (2018) REMUX 1080p Latino




Aportes de DPeliculasHDmega la pass es:dpeliculashdmega.org Aportes de CinemaniaHD la pass es:cinemaniahdd.com
Guardado en : Ciencia ficción , Drama , Misterio

Películas relacionadas

descargar I Think We’re Alone Now (2018) REMUX 1080p Latino Full 1080p 1080p gratis, I Think We’re Alone Now (2018) REMUX 1080p Latino Full 1080p mega 1 link, I Think We’re Alone Now (2018) REMUX 1080p Latino Full 1080p pelicula completa, descargar I Think We’re Alone Now (2018) REMUX 1080p Latino Full 1080p gratis en mega.

I Think We’re Alone Now (2018) REMUX 1080p Latino pelicula full hd, I Think We’re Alone Now (2018) REMUX 1080p Latino mega latino, I Think We’re Alone Now (2018) REMUX 1080p Latino 4k latino, I Think We’re Alone Now (2018) REMUX 1080p Latino pelicula completa, I Think We’re Alone Now (2018) REMUX 1080p Latino descargar gratis, descargar I Think We’re Alone Now (2018) REMUX 1080p Latino pelicula latino, I Think We’re Alone Now (2018) REMUX 1080p Latino 1 link mega, I Think We’re Alone Now (2018) REMUX 1080p Latino 1 link google drive, I Think We’re Alone Now (2018) REMUX 1080p Latino hd 1080p latino.
Comentarios 0