×

¿Problemas para descargar con Mozilla, EDGE? Deshabilita la opción "Abrir vinculos en una pestaña nueva" tal como lo muestra ésta imagen.

Ecos Mortales (2018) REMUX 1080p Latino

757 vistas

Información de Ecos Mortales (2018) REMUX 1080p Latino

Datos de la película

  • Calidad: Full 1080p
  • Audio: Español Latino AC3 2.0 DVD - Ingles DTS 5.1 BLURAY
  • Subtitulos: Español Latino PGS - Ingles PGS
  • Resolución: 1920x1080p
  • Formato: MKV
  • Codec: H.264
  • Encoder: CinefiloCool
  • Mediainfo: Clic para Mostrar Datos Ver
  • Ecos Mortales (2018) REMUX 1080p Latino-CMHDD.mkv
    Format                      : Matroska
    Format version              : Version 4
    File size                   : 26.7 GiB
    Duration                    : 1 h 38 min
    Overall bit rate mode       : Variable
    Overall bit rate            : 38.9 Mb/s
    Movie name                  : I Still See You (2018) CinemaniaHDD.Net
    Encoded date                : UTC 2021-04-06 08:51:30
    Writing application         : mkvmerge v51.0.0 ('I Wish') 64-bit
    Writing library             : libebml v1.4.0 + libmatroska v1.6.2
    Attachments                 : CINEMANIAHD.png

    Video
    ID                          : 1
    ID in the original source m : 4113 (0x1011)
    Format                      : AVC
    Format/Info                 : Advanced Video Codec
    Format profile              : High@L4.1
    Format settings             : CABAC / 4 Ref Frames
    Format settings, CABAC      : Yes
    Format settings, Reference  : 4 frames
    Codec ID                    : V_MPEG4/ISO/AVC
    Duration                    : 1 h 38 min
    Bit rate mode               : Variable
    Bit rate                    : 35.1 Mb/s
    Maximum bit rate            : 37.0 Mb/s
    Width                       : 1 920 pixels
    Height                      : 1 080 pixels
    Display aspect ratio        : 16:9
    Frame rate mode             : Constant
    Frame rate                  : 23.976 (24000/1001) FPS
    Color space                 : YUV
    Chroma subsampling          : 4:2:0
    Bit depth                   : 8 bits
    Scan type                   : Progressive
    Bits/(Pixel*Frame)          : 0.706
    Stream size                 : 24.1 GiB (90%)
    Title                       : REMUX HD1080p [CinemaniaHDD]
    Default                     : Yes
    Forced                      : No
    Original source medium      : Blu-ray

    Audio #1
    ID                          : 2
    Format                      : AC-3
    Format/Info                 : Audio Coding 3
    Commercial name             : Dolby Digital
    Codec ID                    : A_AC3
    Duration                    : 1 h 38 min
    Bit rate mode               : Constant
    Bit rate                    : 256 kb/s
    Channel(s)                  : 2 channels
    Channel layout              : L R
    Sampling rate               : 48.0 kHz
    Frame rate                  : 31.250 FPS (1536 SPF)
    Compression mode            : Lossy
    Stream size                 : 180 MiB (1%)
    Title                       : Español Latino [CinemaniaHDD]
    Language                    : Spanish
    Service kind                : Complete Main
    Default                     : Yes
    Forced                      : No

    Audio #2
    ID                          : 3
    ID in the original source m : 4352 (0x1100)
    Format                      : DTS XLL
    Format/Info                 : Digital Theater Systems
    Commercial name             : DTS-HD Master Audio
    Codec ID                    : A_DTS
    Duration                    : 1 h 38 min
    Bit rate mode               : Variable
    Bit rate                    : 3 516 kb/s
    Channel(s)                  : 6 channels
    Channel layout              : C L R Ls Rs LFE
    Sampling rate               : 48.0 kHz
    Frame rate                  : 93.750 FPS (512 SPF)
    Bit depth                   : 24 bits
    Compression mode            : Lossless
    Stream size                 : 2.41 GiB (9%)
    Title                       : Ingles [CinemaniaHDD]
    Language                    : English
    Default                     : No
    Forced                      : No
    Original source medium      : Blu-ray

    Text #1
    ID                          : 4
    ID in the original source m : 4609 (0x1201)
    Format                      : PGS
    Muxing mode                 : zlib
    Codec ID                    : S_HDMV/PGS
    Codec ID/Info               : Picture based subtitle format used on BDs/HD-DVDs
    Duration                    : 1 h 31 min
    Bit rate                    : 26.3 kb/s
    Count of elements           : 1788
    Stream size                 : 17.2 MiB (0%)
    Title                       : Español-PGS [CinemaniaHDD]
    Language                    : Spanish
    Default                     : No
    Forced                      : No
    Original source medium      : Blu-ray

    Text #2
    ID                          : 5
    ID in the original source m : 4608 (0x1200)
    Format                      : PGS
    Muxing mode                 : zlib
    Codec ID                    : S_HDMV/PGS
    Codec ID/Info               : Picture based subtitle format used on BDs/HD-DVDs
    Duration                    : 1 h 34 min
    Bit rate                    : 31.8 kb/s
    Count of elements           : 2166
    Stream size                 : 21.5 MiB (0%)
    Title                       : Ingles-PGS [CinemaniaHDD]
    Language                    : Spanish
    Default                     : No
    Forced                      : No
    Original source medium      : Blu-ray

    Text #3
    ID                          : 6
    Format                      : UTF-8
    Codec ID                    : S_TEXT/UTF8
    Codec ID/Info               : UTF-8 Plain Text
    Duration                    : 1 h 28 min
    Bit rate                    : 1 b/s
    Count of elements           : 19
    Stream size                 : 794 Bytes (0%)
    Title                       : Forzados-SRT [CinemaniaHDD]
    Language                    : Spanish
    Default                     : Yes
    Forced                      : No

    Text #4
    ID                          : 7
    Format                      : UTF-8
    Codec ID                    : S_TEXT/UTF8
    Codec ID/Info               : UTF-8 Plain Text
    Duration                    : 1 h 32 min
    Bit rate                    : 51 b/s
    Count of elements           : 906
    Stream size                 : 34.6 KiB (0%)
    Title                       : Español-SRT [CinemaniaHDD]
    Language                    : Spanish
    Default                     : No
    Forced                      : No

    Menu
    00:00:00.000                : en:Chapter 01
    00:05:19.694                : en:Chapter 02
    00:11:20.137                : en:Chapter 03
    00:18:19.681                : en:Chapter 04
    00:23:20.690                : en:Chapter 05
    00:29:36.816                : en:Chapter 06
    00:35:12.151                : en:Chapter 07
    00:43:29.023                : en:Chapter 08
    00:48:11.930                : en:Chapter 09
    00:55:16.730                : en:Chapter 10
    01:01:09.791                : en:Chapter 11
    01:08:04.121                : en:Chapter 12
    01:12:41.940                : en:Chapter 13
    01:19:13.790                : en:Chapter 14
    01:23:08.817                : en:Chapter 15
    01:30:47.108                : en:Chapter 16

  • Peso: 26.7 GiB

Sinopsis

Descargar Ecos Mortales [I Still See You] (2018) REMUX 1080p Latino. Este thriller romántico y sobrenatural cuenta la historia de una adolescente que vive en un mundo en el que los vivos y los muertos conviven tras la ruptura de la barrera entre ambas realidades. Tras años de tranquila convivencia, una de estas presencias fantasmales amenazará a la joven, que se verá obligada a emprender una misión que cambiará su vida para siempre.

RESUBIDO!!

Ficha técnica

Video trailer de la película

Enlaces de descarga

Rip de Bluray

Descargar Ecos Mortales (2018) REMUX 1080p Latino




Aportes de DPeliculasHDmega la pass es:dpeliculashdmega.org Aportes de CinemaniaHD la pass es:cinemaniahdd.com
Guardado en : Fantasía , Remux , Suspenso

Películas relacionadas

descargar Ecos Mortales (2018) REMUX 1080p Latino Full 1080p 1080p gratis, Ecos Mortales (2018) REMUX 1080p Latino Full 1080p mega 1 link, Ecos Mortales (2018) REMUX 1080p Latino Full 1080p pelicula completa, descargar Ecos Mortales (2018) REMUX 1080p Latino Full 1080p gratis en mega.

Ecos Mortales (2018) REMUX 1080p Latino pelicula full hd, Ecos Mortales (2018) REMUX 1080p Latino mega latino, Ecos Mortales (2018) REMUX 1080p Latino 4k latino, Ecos Mortales (2018) REMUX 1080p Latino pelicula completa, Ecos Mortales (2018) REMUX 1080p Latino descargar gratis, descargar Ecos Mortales (2018) REMUX 1080p Latino pelicula latino, Ecos Mortales (2018) REMUX 1080p Latino 1 link mega, Ecos Mortales (2018) REMUX 1080p Latino 1 link google drive, Ecos Mortales (2018) REMUX 1080p Latino hd 1080p latino.
Comentarios 0