×

¿Problemas para descargar con Mozilla, EDGE? Deshabilita la opción "Abrir vinculos en una pestaña nueva" tal como lo muestra ésta imagen.

Yo, Robot (2004) REMUX 1080p Latino

268 vistas

Información de Yo, Robot (2004) REMUX 1080p Latino

Datos de la película

  • Calidad: Full 1080p
  • Audio: Español Latino DTS 5.1 BLURAY - Ingles DTS-HD 5.1 BLURAY
  • Subtitulos: Español PGS - Ingles PGS
  • Resolución: 1920x1080p
  • Formato: MKV
  • Codec: H.264
  • Encoder: CinefiloCool
  • Mediainfo: Clic para Mostrar Datos Ver
  • Yo, Robot (2004) REMUX 1080p Latino-CMHDD.mkv
    Format                      : Matroska
    Format version              : Version 4
    File size                   : 23.3 GiB
    Duration                    : 1 h 54 min
    Overall bit rate            : 29.0 Mb/s
    Movie name                  : I, Robot (2004) CinemaniaHDD.Net
    Encoded date                : UTC 2023-10-02 22:44:16
    Writing application         : mkvmerge v56.1.0 ('My Friend') 64-bit
    Writing library             : libebml v1.4.2 + libmatroska v1.6.4
    Attachments                 : CINEMANIAHD.png

    Video
    ID                          : 1
    Format                      : AVC
    Format/Info                 : Advanced Video Codec
    Format profile              : High@L4.1
    Format settings             : CABAC / 3 Ref Frames
    Format settings, CABAC      : Yes
    Format settings, Reference  : 3 frames
    Codec ID                    : V_MPEG4/ISO/AVC
    Duration                    : 1 h 54 min
    Bit rate                    : 25.2 Mb/s
    Width                       : 1 920 pixels
    Height                      : 1 080 pixels
    Display aspect ratio        : 16:9
    Frame rate mode             : Constant
    Frame rate                  : 23.976 (24000/1001) FPS
    Color space                 : YUV
    Chroma subsampling          : 4:2:0
    Bit depth                   : 8 bits
    Scan type                   : Progressive
    Bits/(Pixel*Frame)          : 0.508
    Stream size                 : 20.2 GiB (87%)
    Title                       : REMUX HD1080p [CinemaniaHDD]
    Default                     : Yes
    Forced                      : Yes

    Audio #1
    ID                          : 2
    Format                      : DTS
    Format/Info                 : Digital Theater Systems
    Codec ID                    : A_DTS
    Duration                    : 1 h 54 min
    Bit rate mode               : Constant
    Bit rate                    : 768 kb/s
    Channel(s)                  : 6 channels
    Channel layout              : C L R Ls Rs LFE
    Sampling rate               : 48.0 kHz
    Frame rate                  : 93.750 FPS (512 SPF)
    Bit depth                   : 24 bits
    Compression mode            : Lossy
    Delay relative to video     : 10 ms
    Stream size                 : 630 MiB (3%)
    Title                       : Español Latino [CinemaniaHDD]
    Language                    : Spanish
    Default                     : Yes
    Forced                      : Yes

    Audio #2
    ID                          : 3
    ID in the original source m : 4352 (0x1100)
    Format                      : DTS XBR
    Format/Info                 : Digital Theater Systems
    Commercial name             : DTS-HD High Resolution Audio
    Codec ID                    : A_DTS
    Duration                    : 1 h 54 min
    Bit rate mode               : Constant
    Bit rate                    : 3 018 kb/s
    Channel(s)                  : 6 channels
    Channel layout              : C L R Ls Rs LFE
    Sampling rate               : 48.0 kHz
    Frame rate                  : 93.750 FPS (512 SPF)
    Bit depth                   : 24 bits
    Compression mode            : Lossy
    Stream size                 : 2.42 GiB (10%)
    Title                       : Ingles [CinemaniaHDD]
    Language                    : English
    Default                     : No
    Forced                      : No
    Original source medium      : Blu-ray

    Text #1
    ID                          : 4
    Format                      : PGS
    Muxing mode                 : zlib
    Codec ID                    : S_HDMV/PGS
    Codec ID/Info               : Picture based subtitle format used on BDs/HD-DVDs
    Duration                    : 1 h 53 min
    Bit rate                    : 568 b/s
    Count of elements           : 40
    Stream size                 : 475 KiB (0%)
    Title                       : Forzados-PGS [CinemaniaHDD]
    Language                    : Spanish
    Default                     : No
    Forced                      : No

    Text #2
    ID                          : 5
    Format                      : PGS
    Muxing mode                 : zlib
    Codec ID                    : S_HDMV/PGS
    Codec ID/Info               : Picture based subtitle format used on BDs/HD-DVDs
    Duration                    : 1 h 53 min
    Bit rate                    : 29.4 kb/s
    Count of elements           : 2276
    Stream size                 : 23.9 MiB (0%)
    Title                       : Español-PGS [CinemaniaHDD]
    Language                    : Spanish
    Default                     : No
    Forced                      : No

    Text #3
    ID                          : 6
    Format                      : PGS
    Muxing mode                 : zlib
    Codec ID                    : S_HDMV/PGS
    Codec ID/Info               : Picture based subtitle format used on BDs/HD-DVDs
    Duration                    : 1 h 51 min
    Bit rate                    : 29.4 kb/s
    Count of elements           : 2236
    Stream size                 : 23.5 MiB (0%)
    Title                       : Ingles [CinemaniaHDD]
    Language                    : English
    Default                     : No
    Forced                      : No

    Text #4
    ID                          : 7
    Format                      : UTF-8
    Codec ID                    : S_TEXT/UTF8
    Codec ID/Info               : UTF-8 Plain Text
    Duration                    : 1 h 33 min
    Bit rate                    : 1 b/s
    Count of elements           : 20
    Stream size                 : 720 Bytes (0%)
    Title                       : Forzados-SRT [CinemaniaHDD]
    Language                    : Spanish
    Default                     : Yes
    Forced                      : Yes

    Text #5
    ID                          : 8
    Format                      : UTF-8
    Codec ID                    : S_TEXT/UTF8
    Codec ID/Info               : UTF-8 Plain Text
    Duration                    : 1 h 43 min
    Bit rate                    : 54 b/s
    Count of elements           : 1124
    Stream size                 : 41.0 KiB (0%)
    Title                       : Español-SRT [CinemaniaHDD]
    Language                    : Spanish
    Default                     : No
    Forced                      : No

    Menu
    00:00:00.000                : Opening Titles
    00:01:46.310                : Del Spooner
    00:03:29.622                : Spoonerville
    00:06:17.915                : The Chase
    00:07:56.889                : Police Station
    00:10:19.072                : Dr. Laning's Hologram
    00:12:10.600                : Lawrence Robertson
    00:15:34.679                : Susan Calvin's Tour of USR
    00:17:47.354                : Sonny
    00:22:51.240                : Factory Floor
    00:26:13.401                : Caught
    00:26:58.613                : The Interrogation
    00:33:22.538                : The Cafe
    00:36:02.948                : Lanning's House
    00:41:22.893                : The End of a Long Day
    00:46:07.260                : NS-5 Rollout
    00:49:05.396                : Following Bread Crumbs
    00:52:13.876                : "You Are Experiencing a Car Accident"
    00:55:21.647                : One on One
    00:58:31.087                : The Cavalry Arrives
    01:00:06.140                : Two Sons
    01:01:08.035                : Spooner's Past
    01:07:55.484                : The Bike
    01:08:17.464                : Sonny's Dream
    01:10:23.673                : Robertson's Office
    01:13:16.596                : Shell Game
    01:16:53.188                : Ghosts in the Machine
    01:18:38.835                : Father and Son
    01:20:13.596                : Ambush
    01:21:17.660                : NS-5s Come On-Line
    01:21:56.824                : Robot Wars
    01:27:28.906                : The Back Door
    01:28:57.036                : The Standoff
    01:32:59.027                : Viki Level
    01:34:44.508                : Unauthorized Entry
    01:38:08.837                : "Save Her!"
    01:41:10.268                : Reconciliation
    01:44:14.786                : Sonny's Future
    01:45:02.125                : End Titles

  • Peso: 23.3 GiB

Sinopsis

Descargar Yo, Robot (2004) REMUX 1080p Latino. En el año 2035, los robots son unos dispositivos que usamos todos los días y en quienes confiamos, excepto un detective paranoico, investigando lo que solo él cree que es un crimen perpetrado por un robot. El caso lo lleva a descubrir algo aún peor que amenaza la raza humana.

Ficha técnica

Video trailer de la película

Enlaces de descarga

Rip de Bluray

Descargar Yo, Robot (2004) REMUX 1080p Latino


Aportes de DPeliculasHDmega la pass es:dpeliculashdmega.org Aportes de CinemaniaHD la pass es:cinemaniahdd.com Aportes recientes:cinemaniahdd.net
Guardado en : Acción , Ciencia ficción , Remux

Películas relacionadas

descargar Yo, Robot (2004) REMUX 1080p Latino Full 1080p 1080p gratis, Yo, Robot (2004) REMUX 1080p Latino Full 1080p mega 1 link, Yo, Robot (2004) REMUX 1080p Latino Full 1080p pelicula completa, descargar Yo, Robot (2004) REMUX 1080p Latino Full 1080p gratis en mega.

Yo, Robot (2004) REMUX 1080p Latino pelicula full hd, Yo, Robot (2004) REMUX 1080p Latino mega latino, Yo, Robot (2004) REMUX 1080p Latino 4k latino, Yo, Robot (2004) REMUX 1080p Latino pelicula completa, Yo, Robot (2004) REMUX 1080p Latino descargar gratis, descargar Yo, Robot (2004) REMUX 1080p Latino pelicula latino, Yo, Robot (2004) REMUX 1080p Latino 1 link mega, Yo, Robot (2004) REMUX 1080p Latino 1 link google drive, Yo, Robot (2004) REMUX 1080p Latino hd 1080p latino.
Comentarios 0