×

¿Problemas para descargar con Mozilla, EDGE? Deshabilita la opción "Abrir vinculos en una pestaña nueva" tal como lo muestra ésta imagen.

I Origins (2014) REMUX 1080p Latino – CMHDD

339 vistas

Información de I Origins (2014) REMUX 1080p Latino – CMHDD

Datos de la película

  • Calidad:
  • Audio: Español Latino AC3 5.1 BLURAY - Ingles DTS-HD Master 7.1 BLURAY
  • Subtitulos: Español Latino SRT
  • Resolución: 1920x1080p
  • Formato: MKV
  • Codec: H.264
  • Encoder: Dracarys
  • Mediainfo: Clic para Mostrar Datos Ver
  • Format                      : Matroska
    Format version              : Version 4
    File size                   : 26.2 GiB
    Duration                    : 1 h 47 min
    Overall bit rate mode       : Variable
    Overall bit rate            : 34.8 Mb/s
    Movie name                  : I Origins (2014) REMUX 1080p Latino - CMHDD
    Encoded date                : UTC 2020-10-10 18:23:58
    Writing application         : mkvmerge v51.0.0 ('I Wish') 64-bit
    Writing library             : libebml v1.4.0 + libmatroska v1.6.2

    Video
    ID                          : 1
    Format                      : AVC
    Format/Info                 : Advanced Video Codec
    Format profile              : High@L4.1
    Format settings             : CABAC / 4 Ref Frames
    Format settings, CABAC      : Yes
    Format settings, Reference  : 4 frames
    Codec ID                    : V_MPEG4/ISO/AVC
    Duration                    : 1 h 47 min
    Bit rate mode               : Variable
    Bit rate                    : 29.8 Mb/s
    Maximum bit rate            : 32.0 Mb/s
    Width                       : 1 920 pixels
    Height                      : 1 080 pixels
    Display aspect ratio        : 16:9
    Frame rate mode             : Constant
    Frame rate                  : 23.976 (24000/1001) FPS
    Color space                 : YUV
    Chroma subsampling          : 4:2:0
    Bit depth                   : 8 bits
    Scan type                   : Progressive
    Bits/(Pixel*Frame)          : 0.599
    Stream size                 : 22.4 GiB (85%)
    Default                     : Yes
    Forced                      : No

    Audio #1
    ID                          : 2
    Format                      : AC-3
    Format/Info                 : Audio Coding 3
    Commercial name             : Dolby Digital
    Codec ID                    : A_AC3
    Duration                    : 1 h 47 min
    Bit rate mode               : Constant
    Bit rate                    : 448 kb/s
    Channel(s)                  : 6 channels
    Channel layout              : L R C LFE Ls Rs
    Sampling rate               : 48.0 kHz
    Frame rate                  : 31.250 FPS (1536 SPF)
    Compression mode            : Lossy
    Stream size                 : 345 MiB (1%)
    Language                    : Spanish
    Service kind                : Complete Main
    Default                     : Yes
    Forced                      : No

    Audio #2
    ID                          : 3
    Format                      : DTS ES XLL
    Format/Info                 : Digital Theater Systems
    Commercial name             : DTS-HD Master Audio
    Codec ID                    : A_DTS
    Duration                    : 1 h 47 min
    Bit rate mode               : Variable
    Bit rate                    : 4 607 kb/s
    Channel(s)                  : 8 channels
    Channel layout              : C L R Ls Rs LFE Lb Rb
    Sampling rate               : 48.0 kHz
    Frame rate                  : 93.750 FPS (512 SPF)
    Bit depth                   : 24 bits
    Compression mode            : Lossless
    Stream size                 : 3.46 GiB (13%)
    Language                    : English
    Default                     : No
    Forced                      : No

    Text #1
    ID                          : 4
    Format                      : PGS
    Muxing mode                 : zlib
    Codec ID                    : S_HDMV/PGS
    Codec ID/Info               : Picture based subtitle format used on BDs/HD-DVDs
    Duration                    : 1 h 46 min
    Bit rate                    : 28.2 kb/s
    Count of elements           : 2342
    Stream size                 : 21.5 MiB (0%)
    Language                    : Spanish
    Default                     : No
    Forced                      : No

    Text #2
    ID                          : 5
    Format                      : UTF-8
    Codec ID                    : S_TEXT/UTF8
    Codec ID/Info               : UTF-8 Plain Text
    Duration                    : 1 h 46 min
    Bit rate                    : 44 b/s
    Count of elements           : 1170
    Stream size                 : 34.7 KiB (0%)
    Language                    : Spanish
    Default                     : No
    Forced                      : No

  • Peso: 26.2 GiB

Sinopsis

I Origins follows a molecular biologist studying the evolution of the human eye. He finds his work permeating his life after a brief encounter with an exotic young woman who slips away from him. As his research continues years later with his lab partner, they make a stunning scientific discovery that has far reaching implications and complicates both his scientific and and spiritual beliefs. Traveling half way around the world, he risks everything he has ever known to validate his theory.

Ficha técnica

Video trailer de la película

Enlaces de descarga

Rip de Bluray

Descargar I Origins (2014) REMUX 1080p Latino – CMHDD


Aportes de DPeliculasHDmega la pass es:dpeliculashdmega.org Aportes de CinemaniaHD la pass es:cinemaniahdd.com
Guardado en : Drama , Science Fiction

Películas relacionadas

descargar I Origins (2014) REMUX 1080p Latino – CMHDD 1080p gratis, I Origins (2014) REMUX 1080p Latino – CMHDD mega 1 link, I Origins (2014) REMUX 1080p Latino – CMHDD pelicula completa, descargar I Origins (2014) REMUX 1080p Latino – CMHDD gratis en mega.

I Origins (2014) REMUX 1080p Latino – CMHDD pelicula full hd, I Origins (2014) REMUX 1080p Latino – CMHDD mega latino, I Origins (2014) REMUX 1080p Latino – CMHDD 4k latino, I Origins (2014) REMUX 1080p Latino – CMHDD pelicula completa, I Origins (2014) REMUX 1080p Latino – CMHDD descargar gratis, descargar I Origins (2014) REMUX 1080p Latino – CMHDD pelicula latino, I Origins (2014) REMUX 1080p Latino – CMHDD 1 link mega, I Origins (2014) REMUX 1080p Latino – CMHDD 1 link google drive, I Origins (2014) REMUX 1080p Latino – CMHDD hd 1080p latino.
Comentarios 0