×

¿Problemas para descargar con Mozilla, EDGE? Deshabilita la opción "Abrir vinculos en una pestaña nueva" tal como lo muestra ésta imagen.

Yo los declaro marido y… Larry (2007) REMUX 1080p Latino

537 vistas

Información de Yo los declaro marido y… Larry (2007) REMUX 1080p Latino

Datos de la película

  • Calidad: Full 1080p
  • Audio: Español Latino DTS 5.1 BLURAY - Ingles DTS-HD 5.1 BLURAY
  • Subtitulos: Español Latino PGS - Ingles PGS
  • Resolución: 1920x1080p
  • Formato: MKV
  • Codec: H.264
  • Encoder: CinefiloCool
  • Mediainfo: Clic para Mostrar Datos Ver
  • Yo los declaro marido y... Larry (2007) REMUX 1080p Latino-CMHDD.mkv
    Format                      : Matroska
    Format version              : Version 4
    File size                   : 18.8 GiB
    Duration                    : 1 h 55 min
    Overall bit rate mode       : Variable
    Overall bit rate            : 23.3 Mb/s
    Movie name                  : I Now Pronounce You Chuck And Larry (2007) CinemaniaHDD.Net
    Encoded date                : UTC 2022-05-27 21:28:54
    Writing application         : mkvmerge v56.1.0 ('My Friend') 64-bit
    Writing library             : libebml v1.4.2 + libmatroska v1.6.4
    Cover                       : Yes
    Attachments                 : CINEMANIAHD.png / cover.jpg

    Video
    ID                          : 1
    ID in the original source m : 4113 (0x1011)
    Format                      : VC-1
    Format profile              : Advanced@L3
    Codec ID                    : V_MS/VFW/FOURCC / WVC1
    Codec ID/Hint               : Microsoft
    Duration                    : 1 h 55 min
    Bit rate                    : 18.8 Mb/s
    Width                       : 1 920 pixels
    Height                      : 1 080 pixels
    Display aspect ratio        : 16:9
    Frame rate mode             : Constant
    Frame rate                  : 23.976 (24000/1001) FPS
    Color space                 : YUV
    Chroma subsampling          : 4:2:0
    Bit depth                   : 8 bits
    Scan type                   : Progressive
    Compression mode            : Lossy
    Bits/(Pixel*Frame)          : 0.377
    Stream size                 : 15.1 GiB (81%)
    Title                       : REMUX HD1080p [CinemaniaHDD]
    Default                     : Yes
    Forced                      : Yes
    Original source medium      : Blu-ray

    Audio #1
    ID                          : 2
    ID in the original source m : 4353 (0x1101)
    Format                      : DTS
    Format/Info                 : Digital Theater Systems
    Codec ID                    : A_DTS
    Duration                    : 1 h 55 min
    Bit rate mode               : Constant
    Bit rate                    : 768 kb/s
    Channel(s)                  : 6 channels
    Channel layout              : C L R Ls Rs LFE
    Sampling rate               : 48.0 kHz
    Frame rate                  : 93.750 FPS (512 SPF)
    Bit depth                   : 24 bits
    Compression mode            : Lossy
    Stream size                 : 634 MiB (3%)
    Title                       : Español Latino [CinemaniaHDD]
    Language                    : Spanish
    Default                     : Yes
    Forced                      : Yes
    Original source medium      : Blu-ray

    Audio #2
    ID                          : 3
    ID in the original source m : 4352 (0x1100)
    Format                      : DTS XLL
    Format/Info                 : Digital Theater Systems
    Commercial name             : DTS-HD Master Audio
    Codec ID                    : A_DTS
    Duration                    : 1 h 55 min
    Bit rate mode               : Variable
    Bit rate                    : 3 734 kb/s
    Channel(s)                  : 6 channels
    Channel layout              : C L R Ls Rs LFE
    Sampling rate               : 48.0 kHz
    Frame rate                  : 93.750 FPS (512 SPF)
    Bit depth                   : 24 bits
    Compression mode            : Lossless
    Stream size                 : 3.01 GiB (16%)
    Title                       : Ingles [CinemaniaHDD]
    Language                    : English
    Default                     : No
    Forced                      : No
    Original source medium      : Blu-ray

    Text #1
    ID                          : 4
    ID in the original source m : 4609 (0x1201)
    Format                      : PGS
    Muxing mode                 : zlib
    Codec ID                    : S_HDMV/PGS
    Codec ID/Info               : Picture based subtitle format used on BDs/HD-DVDs
    Duration                    : 1 h 46 min
    Bit rate                    : 40.5 kb/s
    Count of elements           : 3216
    Stream size                 : 30.7 MiB (0%)
    Title                       : Español-PGS [CinemaniaHDD]
    Language                    : Spanish
    Default                     : No
    Forced                      : No
    Original source medium      : Blu-ray

    Text #2
    ID                          : 5
    ID in the original source m : 4608 (0x1200)
    Format                      : PGS
    Muxing mode                 : zlib
    Codec ID                    : S_HDMV/PGS
    Codec ID/Info               : Picture based subtitle format used on BDs/HD-DVDs
    Duration                    : 1 h 46 min
    Bit rate                    : 62.8 kb/s
    Count of elements           : 4311
    Stream size                 : 47.7 MiB (0%)
    Title                       : Ingles-PGS [CinemaniaHDD]
    Language                    : English
    Default                     : No
    Forced                      : No
    Original source medium      : Blu-ray

    Text #3
    ID                          : 6
    Format                      : UTF-8
    Codec ID                    : S_TEXT/UTF8
    Codec ID/Info               : UTF-8 Plain Text
    Duration                    : 1 h 43 min
    Bit rate                    : 0 b/s
    Count of elements           : 23
    Stream size                 : 591 Bytes (0%)
    Title                       : Forzados-SRT [CinemaniaHDD]
    Language                    : Spanish
    Default                     : Yes
    Forced                      : Yes

    Text #4
    ID                          : 7
    Format                      : UTF-8
    Codec ID                    : S_TEXT/UTF8
    Codec ID/Info               : UTF-8 Plain Text
    Duration                    : 1 h 46 min
    Bit rate                    : 89 b/s
    Count of elements           : 1786
    Stream size                 : 70.1 KiB (0%)
    Title                       : Español-SRT [CinemaniaHDD]
    Language                    : Spanish
    Default                     : No
    Forced                      : No

    Menu
    00:00:00.000                : Chapter 01
    00:04:32.188                : Chapter 02
    00:10:31.213                : Chapter 03
    00:17:26.712                : Chapter 04
    00:23:11.556                : Chapter 05
    00:31:23.631                : Chapter 06
    00:37:48.808                : Chapter 07
    00:42:53.112                : Chapter 08
    00:49:34.304                : Chapter 09
    00:52:09.251                : Chapter 10
    00:58:53.196                : Chapter 11
    01:05:46.233                : Chapter 12
    01:11:27.908                : Chapter 13
    01:17:30.437                : Chapter 14
    01:23:06.064                : Chapter 15
    01:26:27.265                : Chapter 16
    01:30:39.767                : Chapter 17
    01:36:01.088                : Chapter 18
    01:42:15.587                : Chapter 19
    01:48:25.457                : Chapter 20

  • Peso: 18.8 GiB

Sinopsis

Descargar Yo los declaro marido y… Larry (2007) REMUX 1080p Latino. Huck Levine (Adam Sandler) y Larry Valentine (Kevin James) son el orgullo del parque de bomberos: son amigos inseparables, siempre dispuestos a hacer lo que sea el uno por el otro. Larry es viudo y lo único que le importa es su familia. En cambio, Huck sólo quiere disfrutar de su soltería. En una ocasión, Larry le salvó la vida a Huck durante un incendio; pero ahora es él quien necesita que Chuck le haga un gran favor. Por culpa de un galimatías burocrático, los hijos de Larry no podrán beneficiarse del seguro de vida de su padre, y la única solución sería que Chuck aceptase firmar unos formularios como pareja de Larry. Sin embargo, las sospechas de un funcionario hacen que lo que era un acto puramente formal y secreto se convierta en noticia. Los dos amigos se verán entonces obligados a representar el papel de pareja feliz y enamorada.

Disponible Sólo Para VIP!!!

Ficha técnica

Video trailer de la película

Enlaces de descarga

Rip de Bluray

Descargar Yo los declaro marido y… Larry (2007) REMUX 1080p Latino


Aportes de DPeliculasHDmega la pass es:dpeliculashdmega.org Aportes de CinemaniaHD la pass es:cinemaniahdd.com
Guardado en : Comedia , Remux , Romance

Películas relacionadas

descargar Yo los declaro marido y… Larry (2007) REMUX 1080p Latino Full 1080p 1080p gratis, Yo los declaro marido y… Larry (2007) REMUX 1080p Latino Full 1080p mega 1 link, Yo los declaro marido y… Larry (2007) REMUX 1080p Latino Full 1080p pelicula completa, descargar Yo los declaro marido y… Larry (2007) REMUX 1080p Latino Full 1080p gratis en mega.

Yo los declaro marido y… Larry (2007) REMUX 1080p Latino pelicula full hd, Yo los declaro marido y… Larry (2007) REMUX 1080p Latino mega latino, Yo los declaro marido y… Larry (2007) REMUX 1080p Latino 4k latino, Yo los declaro marido y… Larry (2007) REMUX 1080p Latino pelicula completa, Yo los declaro marido y… Larry (2007) REMUX 1080p Latino descargar gratis, descargar Yo los declaro marido y… Larry (2007) REMUX 1080p Latino pelicula latino, Yo los declaro marido y… Larry (2007) REMUX 1080p Latino 1 link mega, Yo los declaro marido y… Larry (2007) REMUX 1080p Latino 1 link google drive, Yo los declaro marido y… Larry (2007) REMUX 1080p Latino hd 1080p latino.
Comentarios 0