×

¿Problemas para descargar con Mozilla, EDGE? Deshabilita la opción "Abrir vinculos en una pestaña nueva" tal como lo muestra ésta imagen.

I Love You, Now Die: Part 1 (2019) AMZN WEB-DL 1080p Latino

1.481 vistas

Información de I Love You, Now Die: Part 1 (2019) AMZN WEB-DL 1080p Latino

Datos de la película

  • Calidad: WEBDL
  • Audio: Español Latino AC3 2.0 - Ingles AC3 5.1 HBO
  • Subtitulos: Español Latino SRT- FORZADOS SRT
  • Resolución: 1920x1080
  • Formato: MKV
  • Codec: H.264
  • Encoder: cinemaniahdd
  • Mediainfo: Clic para Mostrar Datos Ver
  • I Love You, Now Die - Part 1 (2019) AMZN WEB-DL 1080p Latino.mkv
    Format                      : Matroska
    Format version              : Version 4
    File size                   : 3.29 GiB
    Duration                    : 1 h 1 min
    Overall bit rate            : 7 615 kb/s
    Movie name                  : I Love You, Now Die - Part 1 (2019) - CinemaniaHDD.Net
    Encoded date                : UTC 2019-09-06 03:40:53
    Writing application         : mkvmerge v35.0.0 ('All The Love In The World') 64-bit
    Writing library             : libebml v1.3.9 + libmatroska v1.5.2

    Video
    ID                          : 1
    Format                      : AVC
    Format/Info                 : Advanced Video Codec
    Format profile              : High@L4
    Format settings             : CABAC / 4 Ref Frames
    Format settings, CABAC      : Yes
    Format settings, ReFrames   : 4 frames
    Codec ID                    : V_MPEG4/ISO/AVC
    Duration                    : 1 h 1 min
    Bit rate mode               : Constant
    Bit rate                    : 6 720 kb/s
    Nominal bit rate            : 10 000 kb/s
    Width                       : 1 920 pixels
    Height                      : 1 080 pixels
    Display aspect ratio        : 16:9
    Frame rate mode             : Constant
    Frame rate                  : 23.976 (24000/1001) FPS
    Color space                 : YUV
    Chroma subsampling          : 4:2:0
    Bit depth                   : 8 bits
    Scan type                   : Progressive
    Bits/(Pixel*Frame)          : 0.135
    Stream size                 : 2.90 GiB (88%)
    Title                       : CinemaniaHDD
    Default                     : Yes
    Forced                      : No
    Color range                 : Limited
    Color primaries             : BT.709
    Transfer characteristics    : BT.709
    Matrix coefficients         : BT.709

    Audio #1
    ID                          : 2
    Format                      : AC-3
    Format/Info                 : Audio Coding 3
    Commercial name             : Dolby Digital
    Codec ID                    : A_AC3
    Duration                    : 1 h 1 min
    Bit rate mode               : Constant
    Bit rate                    : 256 kb/s
    Channel(s)                  : 2 channels
    Channel layout              : L R
    Sampling rate               : 48.0 kHz
    Frame rate                  : 31.250 FPS (1536 SPF)
    Bit depth                   : 16 bits
    Compression mode            : Lossy
    Delay relative to video     : -2 s 42 ms
    Stream size                 : 113 MiB (3%)
    Title                       : Español latino [CinemaniaHDD]
    Language                    : Spanish
    Service kind                : Complete Main
    Default                     : Yes
    Forced                      : No

    Audio #2
    ID                          : 3
    Format                      : E-AC-3
    Format/Info                 : Enhanced AC-3
    Commercial name             : Dolby Digital Plus
    Codec ID                    : A_EAC3
    Duration                    : 1 h 1 min
    Bit rate mode               : Constant
    Bit rate                    : 640 kb/s
    Channel(s)                  : 6 channels
    Channel layout              : L R C LFE Ls Rs
    Sampling rate               : 48.0 kHz
    Frame rate                  : 31.250 FPS (1536 SPF)
    Compression mode            : Lossy
    Delay relative to video     : -2 s 42 ms
    Stream size                 : 283 MiB (8%)
    Title                       : Inglés [CinemaniaHDD]
    Language                    : English
    Service kind                : Complete Main
    Default                     : No
    Forced                      : No

    Text #1
    ID                          : 4
    Format                      : UTF-8
    Codec ID                    : S_TEXT/UTF8
    Codec ID/Info               : UTF-8 Plain Text
    Duration                    : 59 min 19 s
    Bit rate                    : 3 b/s
    Count of elements           : 46
    Stream size                 : 1.37 KiB (0%)
    Title                       : Forzados [CinemaniaHDD]
    Language                    : Spanish
    Default                     : Yes
    Forced                      : Yes

    Text #2
    ID                          : 5
    Format                      : UTF-8
    Codec ID                    : S_TEXT/UTF8
    Codec ID/Info               : UTF-8 Plain Text
    Duration                    : 59 min 38 s
    Bit rate                    : 94 b/s
    Count of elements           : 1061
    Stream size                 : 41.4 KiB (0%)
    Title                       : Español latino [CinemaniaHDD]
    Language                    : Spanish
    Default                     : No
    Forced                      : No

     

  • Peso: 3.29 GiB

Sinopsis

Descargar I Love You, Now Die: Part 1 (2019) AMZN WEB-DL 1080p Latino, Los actos que cometió Michelle Carter sacudieron a toda una nación, pero ¿qué fue lo que sucedió realmente? Este documental investiga los hechos que presentó la defensa para ofrecer un nuevo punto de vista sobre lo acontecido.

Ficha técnica

  • Titulo original: I Love You, Now Die: The Commonwealth v. Michelle Carter
  • Fecha de lanzamiento: 09-07-2019 (US)
  • Género: Crimen, Documental, HBO

Video trailer de la película

Enlaces de descarga

Rip de Bluray

Descargar I Love You, Now Die: Part 1 (2019) AMZN WEB-DL 1080p Latino




Aportes de DPeliculasHDmega la pass es:dpeliculashdmega.org Aportes de CinemaniaHD la pass es:cinemaniahdd.com
Guardado en : Crimen , Documental , HBO

Películas relacionadas

I Love You, Now Die: Part 1 (2019) AMZN WEB-DL 1080p Latino pelicula full hd, I Love You, Now Die: Part 1 (2019) AMZN WEB-DL 1080p Latino mega latino, I Love You, Now Die: Part 1 (2019) AMZN WEB-DL 1080p Latino 4k latino, I Love You, Now Die: Part 1 (2019) AMZN WEB-DL 1080p Latino pelicula completa, I Love You, Now Die: Part 1 (2019) AMZN WEB-DL 1080p Latino descargar gratis, descargar I Love You, Now Die: Part 1 (2019) AMZN WEB-DL 1080p Latino pelicula latino, I Love You, Now Die: Part 1 (2019) AMZN WEB-DL 1080p Latino 1 link mega, I Love You, Now Die: Part 1 (2019) AMZN WEB-DL 1080p Latino 1 link google drive, I Love You, Now Die: Part 1 (2019) AMZN WEB-DL 1080p Latino hd 1080p latino.
Comentarios 0