×

¿Problemas para descargar con Mozilla, EDGE? Deshabilita la opción "Abrir vinculos en una pestaña nueva" tal como lo muestra ésta imagen.

Te Amo Brother (2009) REMUX 1080p Latino

256 vistas

Información de Te Amo Brother (2009) REMUX 1080p Latino

Datos de la película

  • Calidad: Full 1080p
  • Audio: Se especifica abajo de la Sinopsis
  • Subtitulos: Español Latino PGS - Ingles PGS
  • Resolución: 1920x1080p
  • Formato: MKV
  • Codec: H.264
  • Encoder: CinefiloCool
  • Mediainfo: Clic para Mostrar Datos Ver
  • Te Amo Brother (2009) REMUX 1080p Latino-CMHDD.mkv Format                      : Matroska Format version              : Version 4 File size                   : 26.4 GiB Duration                    : 1 h 44 min Overall bit rate mode       : Variable Overall bit rate            : 36.1 Mb/s Movie name                  : I Love You, Man (2009) CinemaniaHDD.Net Encoded date                : UTC 2023-01-28 07:17:24 Writing application         : mkvmerge v56.1.0 ('My Friend') 64-bit Writing library             : libebml v1.4.2 + libmatroska v1.6.4 Attachments                 : CINEMANIAHD.png Video ID                          : 1 Format                      : AVC Format/Info                 : Advanced Video Codec Format profile              : High@L4.1 Format settings             : CABAC / 2 Ref Frames Format settings, CABAC      : Yes Format settings, Reference  : 2 frames Format settings, GOP        : M=1, N=10 Codec ID                    : V_MPEG4/ISO/AVC Duration                    : 1 h 44 min Bit rate mode               : Variable Bit rate                    : 31.8 Mb/s Width                       : 1 920 pixels Height                      : 1 080 pixels Display aspect ratio        : 16:9 Frame rate mode             : Constant Frame rate                  : 23.976 (24000/1001) FPS Color space                 : YUV Chroma subsampling          : 4:2:0 Bit depth                   : 8 bits Scan type                   : Progressive Bits/(Pixel*Frame)          : 0.640 Stream size                 : 23.3 GiB (88%) Title                       : REMUX HD1080p [CinemaniaHDD] Default                     : Yes Forced                      : Yes Audio #1 ID                          : 2 Format                      : AC-3 Format/Info                 : Audio Coding 3 Commercial name             : Dolby Digital Codec ID                    : A_AC3 Duration                    : 1 h 44 min Bit rate mode               : Constant Bit rate                    : 640 kb/s Channel(s)                  : 6 channels Channel layout              : L R C LFE Ls Rs Sampling rate               : 48.0 kHz Frame rate                  : 31.250 FPS (1536 SPF) Compression mode            : Lossy Stream size                 : 480 MiB (2%) Title                       : Español Latino [CinemaniaHDD] Language                    : Spanish Service kind                : Complete Main Default                     : Yes Forced                      : Yes Audio #2 ID                          : 3 Format                      : MLP FBA Format/Info                 : Meridian Lossless Packing FBA Commercial name             : Dolby TrueHD Codec ID                    : A_TRUEHD Duration                    : 1 h 44 min Bit rate mode               : Variable Bit rate                    : 2 844 kb/s Maximum bit rate            : 4 365 kb/s Channel(s)                  : 6 channels Channel layout              : L R C LFE Ls Rs Sampling rate               : 48.0 kHz Frame rate                  : 1 200.000 FPS (40 SPF) Compression mode            : Lossless Stream size                 : 2.08 GiB (8%) Title                       : Ingles [CinemaniaHDD] Language                    : English Default                     : No Forced                      : No Audio #3 ID                          : 4 Format                      : AC-3 Format/Info                 : Audio Coding 3 Commercial name             : Dolby Digital Codec ID                    : A_AC3 Duration                    : 1 h 44 min Bit rate mode               : Constant Bit rate                    : 640 kb/s Channel(s)                  : 6 channels Channel layout              : L R C LFE Ls Rs Sampling rate               : 48.0 kHz Frame rate                  : 31.250 FPS (1536 SPF) Compression mode            : Lossy Stream size                 : 480 MiB (2%) Title                       : Ingles AC3 [CinemaniaHDD] Language                    : English Service kind                : Complete Main Default                     : No Forced                      : No Text #1 ID                          : 5 Format                      : PGS Muxing mode                 : zlib Codec ID                    : S_HDMV/PGS Codec ID/Info               : Picture based subtitle format used on BDs/HD-DVDs Duration                    : 1 h 37 min Bit rate                    : 406 b/s Count of elements           : 20 Stream size                 : 292 KiB (0%) Title                       : Forzados-PGS [CinemaniaHDD] Language                    : Spanish Default                     : No Forced                      : No Text #2 ID                          : 6 Format                      : PGS Muxing mode                 : zlib Codec ID                    : S_HDMV/PGS Codec ID/Info               : Picture based subtitle format used on BDs/HD-DVDs Duration                    : 1 h 44 min Bit rate                    : 55.2 kb/s Count of elements           : 3818 Stream size                 : 41.1 MiB (0%) Title                       : Español-PGS [CinemaniaHDD] Language                    : Spanish Default                     : No Forced                      : No Text #3 ID                          : 7 Format                      : PGS Muxing mode                 : zlib Codec ID                    : S_HDMV/PGS Codec ID/Info               : Picture based subtitle format used on BDs/HD-DVDs Duration                    : 1 h 41 min Bit rate                    : 64.7 kb/s Count of elements           : 3772 Stream size                 : 46.8 MiB (0%) Title                       : Ingles-PGS [CinemaniaHDD] Language                    : English Default                     : No Forced                      : No Text #4 ID                          : 8 Format                      : UTF-8 Codec ID                    : S_TEXT/UTF8 Codec ID/Info               : UTF-8 Plain Text Duration                    : 1 h 37 min Bit rate                    : 0 b/s Count of elements           : 10 Stream size                 : 426 Bytes (0%) Title                       : Forzados-SRT [CinemaniaHDD] Language                    : Spanish Default                     : Yes Forced                      : Yes Text #5 ID                          : 9 Format                      : UTF-8 Codec ID                    : S_TEXT/UTF8 Codec ID/Info               : UTF-8 Plain Text Duration                    : 1 h 41 min Bit rate                    : 92 b/s Count of elements           : 1912 Stream size                 : 68.4 KiB (0%) Title                       : Español-SRT [CinemaniaHDD] Language                    : Spanish Default                     : No Forced                      : No Menu 00:00:00.000                : 00:00:00.000 00:04:51.249                : 00:04:51.249 00:06:55.749                : 00:06:55.749 00:09:58.681                : 00:09:58.681 00:14:03.593                : 00:14:03.593 00:20:21.053                : 00:20:21.053 00:22:17.461                : 00:22:17.461 00:27:09.711                : 00:27:09.711 00:30:55.645                : 00:30:55.645 00:36:01.618                : 00:36:01.618 00:39:14.185                : 00:39:14.185 00:47:24.592                : 00:47:24.592 00:53:33.001                : 00:53:33.001 00:56:09.908                : 00:56:09.908 01:03:38.898                : 01:03:38.898 01:07:43.393                : 01:07:43.393 01:10:15.169                : 01:10:15.169 01:15:41.162                : 01:15:41.162 01:18:14.565                : 01:18:14.565 01:21:44.316                : 01:21:44.316 01:25:43.305                : 01:25:43.305 01:32:29.669                : 01:32:29.669 01:38:38.913                : 01:38:38.913
  • Peso: 26.4 GiB

Sinopsis

Descargar Te Amo Brother (2009) REMUX 1080p Latino. Peter Klaven (Paul Rudd) es un joven que vive muy feliz: está de novio con Zooey (Rashida Jones), con quien vive, y es un agente que trabaja en bienes raíces, a pesar de la crisis económica. Su futuro económico depende de la comisión que gane si logra vender una gran mansión del actor Lou Ferrigno. Al momento de casarse, Zooey llama a todas sus amigas para que sean sus damas de honor y Peter a nadie. Así, Peter se da cuenta de que no tiene amigos hombres. Y la boda necesita un padrino. Peter quiere tener suerte con los recomendados de su hermano gay, Robbie (Andy Samberg), con resultados cómicos pero previsibles. Después de fracasar en las citas con los hombres homosexuales, en la casa de Ferrigno conoce a un hombre llamado Sydney Fife (Jason Segel), que no quería comprar la gran mansión, sino que está allí para comer. Peter va rápidamente a proponerle una cita amical a Sydney y poco a poco crece una gran amistad.

Audio Español Latino AC3 5.1 Bluray – Ingles TrueHD 5.1 + AC3 5.1 Bluray

Ficha técnica

Video trailer de la película

Enlaces de descarga

Rip de Bluray

Descargar Te Amo Brother (2009) REMUX 1080p Latino


Aportes de DPeliculasHDmega la pass es:dpeliculashdmega.org Aportes de CinemaniaHD la pass es:cinemaniahdd.com Aportes recientes:cinemaniahdd.net
Guardado en : Comedia , Remux , Romance

Películas relacionadas

  • Who Invited Charlie? (2023) AMZN WEB-DL 1080p Latino

    Who Invited Charlie? (2023) AMZN WEB-DL 1080p Latino

    2023
    Who Invited Charlie? (2023) AMZN WEB-DL 1080p Latino

    1h 41m 2023

    Phil y su familia buscan refugio en los Hamptons para esquivar la pandemia, pero su paz se acaba con...

    Director: Xavier Manrique

    Género: Comedia

    Actores: Xosha Roquemore

  • Players (2024) NF WEB-DL 1080p Latino

    Players (2024) NF WEB-DL 1080p Latino

    2024
    Players (2024) NF WEB-DL 1080p Latino

    1h 45m 2024

    Descargar Players (2024) NF WEB-DL 1080p Latino. Una periodista deportiva neoyorquina con un ingenioso...

    Director: Trish Sie

    Género: Comedia

    Actores: Veraalba Santa

  • ¡Patos! (2023) HD 1080p Latino

    ¡Patos! (2023) HD 1080p Latino

    2023
    ¡Patos! (2023) HD 1080p Latino

    1h 23m 2023

    Descargar ¡Patos! (2023) HD 1080p Latino. Después de que una familia de patos migratorios aterriza...

    Director: Guy-Laurent Homsy

    Género: Acción

    Actores: Zeno Robinson

descargar Te Amo Brother (2009) REMUX 1080p Latino Full 1080p 1080p gratis, Te Amo Brother (2009) REMUX 1080p Latino Full 1080p mega 1 link, Te Amo Brother (2009) REMUX 1080p Latino Full 1080p pelicula completa, descargar Te Amo Brother (2009) REMUX 1080p Latino Full 1080p gratis en mega.

Te Amo Brother (2009) REMUX 1080p Latino pelicula full hd, Te Amo Brother (2009) REMUX 1080p Latino mega latino, Te Amo Brother (2009) REMUX 1080p Latino 4k latino, Te Amo Brother (2009) REMUX 1080p Latino pelicula completa, Te Amo Brother (2009) REMUX 1080p Latino descargar gratis, descargar Te Amo Brother (2009) REMUX 1080p Latino pelicula latino, Te Amo Brother (2009) REMUX 1080p Latino 1 link mega, Te Amo Brother (2009) REMUX 1080p Latino 1 link google drive, Te Amo Brother (2009) REMUX 1080p Latino hd 1080p latino.
Comentarios 0