×

¿Problemas para descargar con Mozilla, EDGE? Deshabilita la opción "Abrir vinculos en una pestaña nueva" tal como lo muestra ésta imagen.

Perdí mi cuerpo (2019) REMUX 1080p Latino

271 vistas

Información de Perdí mi cuerpo (2019) REMUX 1080p Latino

Datos de la película

  • Calidad: Full 1080p
  • Audio: Se especifica abajo de la Sinopsis
  • Subtitulos: Español Latino SRT- FORZADOS SRT
  • Resolución: 1920x1080p
  • Formato: MKV
  • Codec: H.264
  • Encoder: Melkor
  • Mediainfo: Clic para Mostrar Datos Ver
  • Perdi Mi Cuerpo (2019) REMUX 1080p Latino.mkv
    Format                      : Matroska
    Format version              : Version 4
    File size                   : 9.04 GiB
    Duration                    : 1 h 20 min
    Overall bit rate mode       : Variable
    Overall bit rate            : 16.0 Mb/s
    Movie name                  : J'ai perdu mon corps (2019) CinemaniaHDD.Net
    Encoded date                : UTC 2020-06-10 05:44:02
    Writing application         : mkvmerge v46.0.0 ('No Deeper Escape') 64-bit
    Writing library             : libebml v1.3.10 + libmatroska v1.5.2
    Attachments                 : CINEMANIAHD.png

    Video
    ID                          : 1
    ID in the original source m : 4113 (0x1011)
    Format                      : AVC
    Format/Info                 : Advanced Video Codec
    Format profile              : High@L4.1
    Format settings             : CABAC / 4 Ref Frames
    Format settings, CABAC      : Yes
    Format settings, Reference  : 4 frames
    Format settings, GOP        : M=3, N=24
    Codec ID                    : V_MPEG4/ISO/AVC
    Duration                    : 1 h 20 min
    Bit rate mode               : Variable
    Bit rate                    : 13.6 Mb/s
    Maximum bit rate            : 30.0 Mb/s
    Width                       : 1 920 pixels
    Height                      : 1 080 pixels
    Display aspect ratio        : 16:9
    Frame rate mode             : Constant
    Frame rate                  : 24.000 FPS
    Color space                 : YUV
    Chroma subsampling          : 4:2:0
    Bit depth                   : 8 bits
    Scan type                   : Progressive
    Bits/(Pixel*Frame)          : 0.274
    Stream size                 : 7.67 GiB (85%)
    Title                       : REMUX 1080p [CinemaniaHDD]
    Default                     : Yes
    Forced                      : Yes
    Color range                 : Limited
    Color primaries             : BT.709
    Transfer characteristics    : BT.709
    Matrix coefficients         : BT.709
    Original source medium      : Blu-ray

    Audio #1
    ID                          : 2
    Format                      : AC-3
    Format/Info                 : Audio Coding 3
    Commercial name             : Dolby Digital
    Codec ID                    : A_AC3
    Duration                    : 1 h 20 min
    Bit rate mode               : Constant
    Bit rate                    : 640 kb/s
    Channel(s)                  : 6 channels
    Channel layout              : L R C LFE Ls Rs
    Sampling rate               : 48.0 kHz
    Frame rate                  : 31.250 FPS (1536 SPF)
    Compression mode            : Lossy
    Stream size                 : 369 MiB (4%)
    Title                       : Español Latino [CinemaniaHDD]
    Language                    : Spanish
    Service kind                : Complete Main
    Default                     : Yes
    Forced                      : Yes

    Audio #2
    ID                          : 3
    ID in the original source m : 4353 (0x1101)
    Format                      : DTS XLL
    Format/Info                 : Digital Theater Systems
    Commercial name             : DTS-HD Master Audio
    Codec ID                    : A_DTS
    Duration                    : 1 h 20 min
    Bit rate mode               : Variable
    Bit rate                    : 1 780 kb/s
    Channel(s)                  : 6 channels
    Channel layout              : C L R Ls Rs LFE
    Sampling rate               : 48.0 kHz
    Frame rate                  : 93.750 FPS (512 SPF)
    Bit depth                   : 16 bits
    Compression mode            : Lossless
    Stream size                 : 1.00 GiB (11%)
    Title                       : Frances [CinemaniaHDD]
    Language                    : French
    Default                     : No
    Forced                      : No
    Original source medium      : Blu-ray

    Text #1
    ID                          : 4
    Format                      : UTF-8
    Codec ID                    : S_TEXT/UTF8
    Codec ID/Info               : UTF-8 Plain Text
    Duration                    : 1 h 11 min
    Bit rate                    : 0 b/s
    Count of elements           : 13
    Stream size                 : 256 Bytes (0%)
    Title                       : Forzados-SRT [CinemaniaHDD]
    Language                    : Spanish
    Default                     : Yes
    Forced                      : Yes

    Text #2
    ID                          : 5
    Format                      : UTF-8
    Codec ID                    : S_TEXT/UTF8
    Codec ID/Info               : UTF-8 Plain Text
    Duration                    : 1 h 19 min
    Bit rate                    : 24 b/s
    Count of elements           : 505
    Stream size                 : 13.9 KiB (0%)
    Title                       : Español-SRT [CinemaniaHDD]
    Language                    : Spanish
    Default                     : No
    Forced                      : No

    Menu
    00:00:00.000                : en:Chapter 01
    00:07:23.125                : en:Chapter 02
    00:18:49.625                : en:Chapter 03
    00:28:14.458                : en:Chapter 04
    00:38:08.000                : en:Chapter 05
    00:49:34.166                : en:Chapter 06
    01:00:12.166                : en:Chapter 07
    01:08:32.333                : en:Chapter 08
    01:16:02.416                : en:Chapter 09

  • Peso: 9.04 GiB

Sinopsis

Descargar Perdí mi cuerpo (2019) REMUX 1080p Latino. Amor, misterio y aventura se entrelazan en esta película animada sobre un joven que se enamora y una mano amputada que peina la Ciudad de la Luz en busca de su dueño.

Español Latino AC3 5.1 WebDL – Frances DTS-HD 5.1 Bluray

Ficha técnica

Video trailer de la película

Enlaces de descarga

Rip de Bluray

Descargar Perdí mi cuerpo (2019) REMUX 1080p Latino




Aportes de DPeliculasHDmega la pass es:dpeliculashdmega.org Aportes de CinemaniaHD la pass es:cinemaniahdd.com
Guardado en : Animación , Drama , Fantasía , Remux

Películas relacionadas

descargar Perdí mi cuerpo (2019) REMUX 1080p Latino Full 1080p 1080p gratis, Perdí mi cuerpo (2019) REMUX 1080p Latino Full 1080p mega 1 link, Perdí mi cuerpo (2019) REMUX 1080p Latino Full 1080p pelicula completa, descargar Perdí mi cuerpo (2019) REMUX 1080p Latino Full 1080p gratis en mega.

Perdí mi cuerpo (2019) REMUX 1080p Latino pelicula full hd, Perdí mi cuerpo (2019) REMUX 1080p Latino mega latino, Perdí mi cuerpo (2019) REMUX 1080p Latino 4k latino, Perdí mi cuerpo (2019) REMUX 1080p Latino pelicula completa, Perdí mi cuerpo (2019) REMUX 1080p Latino descargar gratis, descargar Perdí mi cuerpo (2019) REMUX 1080p Latino pelicula latino, Perdí mi cuerpo (2019) REMUX 1080p Latino 1 link mega, Perdí mi cuerpo (2019) REMUX 1080p Latino 1 link google drive, Perdí mi cuerpo (2019) REMUX 1080p Latino hd 1080p latino.
Comentarios 0