I Know What You Did Last Summer (2021) Primera Temporada AMZN WEB-DL 1080p Latino

53 vistas
1 estrella2 estrellas3 estrellas4 estrellas5 estrellas (3 votos, promedio: 3,67 de 5)
Cargando...

Información de I Know What You Did Last Summer (2021) Primera Temporada AMZN WEB-DL 1080p Latino

Datos de la película

  • Calidad: 1080p
  • Audio: Español Latino AC3 5.1 WEB-DL - Ingles AC3 5.1 WEB-DL
  • Subtitulos: Español Latino SRT- FORZADOS SRT
  • Resolución: 1920x1080
  • Formato: MKV
  • Codec: H.264
  • Encoder: cinemaniahdd
  • Mediainfo: Clic para Mostrar Datos Ver
  • I Know What You Did Last Summer T01E01 AMZN WEB-DL 1080p Latino [CNMNHDD].mkv
    Format                      : Matroska
    Format version              : Version 4
    File size                   : 3.36 GiB
    Duration                    : 49 min 2 s
    Overall bit rate            : 9 815 kb/s
    Movie name                  : I Know What You Did Last Summer T01E01 - CinemaniaHDD.Net
    Encoded date                : UTC 2021-10-17 19:11:03
    Writing application         : mkvmerge v56.1.0 ('My Friend') 64-bit
    Writing library             : libebml v1.4.2 + libmatroska v1.6.4

    Video
    ID                          : 1
    Format                      : AVC
    Format/Info                 : Advanced Video Codec
    Format profile              : High@L4
    Format settings             : CABAC / 4 Ref Frames
    Format settings, CABAC      : Yes
    Format settings, Reference  : 4 frames
    Codec ID                    : V_MPEG4/ISO/AVC
    Duration                    : 49 min 2 s
    Bit rate mode               : Constant
    Bit rate                    : 7 892 kb/s
    Nominal bit rate            : 10 000 kb/s
    Width                       : 1 920 pixels
    Height                      : 1 080 pixels
    Display aspect ratio        : 16:9
    Frame rate mode             : Constant
    Frame rate                  : 23.976 (24000/1001) FPS
    Color space                 : YUV
    Chroma subsampling          : 4:2:0
    Bit depth                   : 8 bits
    Scan type                   : Progressive
    Bits/(Pixel*Frame)          : 0.159
    Stream size                 : 2.70 GiB (80%)
    Title                       : CinemaniaHDD
    Default                     : Yes
    Forced                      : No
    Color range                 : Limited
    Color primaries             : BT.709
    Transfer characteristics    : BT.709
    Matrix coefficients         : BT.709

    Audio #1
    ID                          : 2
    Format                      : AC-3
    Format/Info                 : Audio Coding 3
    Commercial name             : Dolby Digital
    Codec ID                    : A_AC3
    Duration                    : 49 min 2 s
    Bit rate mode               : Constant
    Bit rate                    : 640 kb/s
    Channel(s)                  : 6 channels
    Channel layout              : L R C LFE Ls Rs
    Sampling rate               : 48.0 kHz
    Frame rate                  : 31.250 FPS (1536 SPF)
    Compression mode            : Lossy
    Stream size                 : 224 MiB (7%)
    Title                       : Español latino [CinemaniaHDD]
    Language                    : Spanish
    Service kind                : Complete Main
    Default                     : Yes
    Forced                      : No

    Audio #2
    ID                          : 3
    Format                      : E-AC-3
    Format/Info                 : Enhanced AC-3
    Commercial name             : Dolby Digital Plus
    Codec ID                    : A_EAC3
    Duration                    : 49 min 2 s
    Bit rate mode               : Constant
    Bit rate                    : 640 kb/s
    Channel(s)                  : 6 channels
    Channel layout              : L R C LFE Ls Rs
    Sampling rate               : 48.0 kHz
    Frame rate                  : 31.250 FPS (1536 SPF)
    Compression mode            : Lossy
    Stream size                 : 224 MiB (7%)
    Title                       : Español latino / E-AC3 [CinemaniaHDD]
    Language                    : Spanish
    Service kind                : Complete Main
    Default                     : No
    Forced                      : No

    Audio #3
    ID                          : 4
    Format                      : E-AC-3
    Format/Info                 : Enhanced AC-3
    Commercial name             : Dolby Digital Plus
    Codec ID                    : A_EAC3
    Duration                    : 49 min 2 s
    Bit rate mode               : Constant
    Bit rate                    : 640 kb/s
    Channel(s)                  : 6 channels
    Channel layout              : L R C LFE Ls Rs
    Sampling rate               : 48.0 kHz
    Frame rate                  : 31.250 FPS (1536 SPF)
    Compression mode            : Lossy
    Stream size                 : 224 MiB (7%)
    Title                       : Inglés [CinemaniaHDD]
    Language                    : English
    Service kind                : Complete Main
    Default                     : No
    Forced                      : No

    Text #1
    ID                          : 5
    Format                      : UTF-8
    Codec ID                    : S_TEXT/UTF8
    Codec ID/Info               : UTF-8 Plain Text
    Duration                    : 39 min 19 s
    Bit rate                    : 1 b/s
    Count of elements           : 15
    Stream size                 : 454 Bytes (0%)
    Title                       : Forzados [CinemaniaHDD]
    Language                    : Spanish
    Default                     : No
    Forced                      : Yes

    Text #2
    ID                          : 6
    Format                      : UTF-8
    Codec ID                    : S_TEXT/UTF8
    Codec ID/Info               : UTF-8 Plain Text
    Duration                    : 48 min 28 s
    Bit rate                    : 47 b/s
    Count of elements           : 598
    Stream size                 : 16.8 KiB (0%)
    Title                       : Español latino [CinemaniaHDD]
    Language                    : Spanish
    Default                     : No
    Forced                      : No

    Menu
    00:00:00.000                : Amazon Original
    00:00:04.000                : Studio Logo
    00:00:09.000                : Title Sequence
    00:00:15.000                : Scene 4
    00:04:56.000                : Scene 5
    00:07:34.000                : Scene 6
    00:12:24.000                : Scene 7
    00:18:34.000                : Scene 8
    00:25:16.000                : Scene 9
    00:34:24.000                : Scene 10
    00:35:08.000                : Scene 11
    00:38:21.000                : Scene 12
    00:41:07.000                : Scene 13
    00:44:03.000                : Scene 14
    00:47:02.000                : End Credits

     

  • Peso: 3.36 GiB Aprox ---- 25 GiB in 8 Chapters.

Sinopsis

En una ciudad hawaiana bañada por el sol con un pasado misterioso, un grupo de amigos se queda con un oscuro secreto después de un trágico accidente. Un año después, un miembro del grupo recibe un mensaje amenazante y los amigos ahora saben que alguien tiene la intención de hacerles pagar el verano pasado.

 

Ficha técnica

  • Titulo original: I Know What You Did Last Summer
  • Fecha de lanzamiento: 14-10-2021 (US)
  • Género: Drama, Series
  • Puntuación: 3.7 3 votos
  • Duración:
    0h 49m

Video trailer de la película

Enlaces de descarga

Rip de Bluray

Descargar I Know What You Did Last Summer (2021) Primera Temporada AMZN WEB-DL 1080p Latino




Aportes de DPeliculasHDmega la pass es:dpeliculashdmega.org Aportes de CinemaniaHD la pass es:cinemaniahdd.com
Guardado en : Drama , Series

Películas relacionadas

I Know What You Did Last Summer (2021) Primera Temporada AMZN WEB-DL 1080p Latino pelicula full hd, I Know What You Did Last Summer (2021) Primera Temporada AMZN WEB-DL 1080p Latino mega latino, I Know What You Did Last Summer (2021) Primera Temporada AMZN WEB-DL 1080p Latino 4k latino, I Know What You Did Last Summer (2021) Primera Temporada AMZN WEB-DL 1080p Latino pelicula completa, I Know What You Did Last Summer (2021) Primera Temporada AMZN WEB-DL 1080p Latino descargar gratis, descargar I Know What You Did Last Summer (2021) Primera Temporada AMZN WEB-DL 1080p Latino pelicula latino, I Know What You Did Last Summer (2021) Primera Temporada AMZN WEB-DL 1080p Latino 1 link mega, I Know What You Did Last Summer (2021) Primera Temporada AMZN WEB-DL 1080p Latino 1 link google drive, I Know What You Did Last Summer (2021) Primera Temporada AMZN WEB-DL 1080p Latino hd 1080p latino.
Comentarios 0