×

¿Problemas para descargar con Mozilla, EDGE? Deshabilita la opción "Abrir vinculos en una pestaña nueva" tal como lo muestra ésta imagen.

I Feel Pretty (2018) REMUX 1080p Latino – CMHDD

248 vistas

Información de I Feel Pretty (2018) REMUX 1080p Latino – CMHDD

Datos de la película

  • Calidad: Full 1080p
  • Audio: Español Latino DTS 5.1 BLURAY - Ingles DTS-HD Master 7.1 BLURAY
  • Subtitulos: Español Latino PGS
  • Resolución: 1920x1080p
  • Formato: MKV
  • Codec: H.264
  • Encoder: Dracarys
  • Mediainfo: Clic para Mostrar Datos Ver
  • Format                      : Matroska
    Format version              : Version 4
    File size                   : 30.4 GiB
    Duration                    : 1 h 50 min
    Overall bit rate mode       : Variable
    Overall bit rate            : 39.3 Mb/s
    Movie name                  : I Feel Pretty (2018) REMUX 1080p Latino - CMHDD
    Encoded date                : UTC 2021-03-22 17:17:07
    Writing application         : mkvmerge v51.0.0 ('I Wish') 64-bit
    Writing library             : libebml v1.4.0 + libmatroska v1.6.2
    Cover                       : Yes
    Attachments                 : cover.jpg

    Video
    ID                          : 1
    ID in the original source m : 4113 (0x1011)
    Format                      : AVC
    Format/Info                 : Advanced Video Codec
    Format profile              : High@L4.1
    Format settings             : CABAC / 4 Ref Frames
    Format settings, CABAC      : Yes
    Format settings, Reference  : 4 frames
    Codec ID                    : V_MPEG4/ISO/AVC
    Duration                    : 1 h 50 min
    Bit rate mode               : Variable
    Bit rate                    : 34.7 Mb/s
    Maximum bit rate            : 39.0 Mb/s
    Width                       : 1 920 pixels
    Height                      : 1 080 pixels
    Display aspect ratio        : 16:9
    Frame rate mode             : Constant
    Frame rate                  : 23.976 (24000/1001) FPS
    Color space                 : YUV
    Chroma subsampling          : 4:2:0
    Bit depth                   : 8 bits
    Scan type                   : Progressive
    Bits/(Pixel*Frame)          : 0.698
    Stream size                 : 26.9 GiB (88%)
    Default                     : Yes
    Forced                      : No
    Original source medium      : Blu-ray

    Audio #1
    ID                          : 2
    ID in the original source m : 4354 (0x1102)
    Format                      : DTS
    Format/Info                 : Digital Theater Systems
    Codec ID                    : A_DTS
    Duration                    : 1 h 50 min
    Bit rate mode               : Constant
    Bit rate                    : 768 kb/s
    Channel(s)                  : 6 channels
    Channel layout              : C L R Ls Rs LFE
    Sampling rate               : 48.0 kHz
    Frame rate                  : 93.750 FPS (512 SPF)
    Bit depth                   : 24 bits
    Compression mode            : Lossy
    Stream size                 : 610 MiB (2%)
    Language                    : Spanish
    Default                     : Yes
    Forced                      : No
    Original source medium      : Blu-ray

    Audio #2
    ID                          : 3
    ID in the original source m : 4352 (0x1100)
    Format                      : DTS XLL
    Format/Info                 : Digital Theater Systems
    Commercial name             : DTS-HD Master Audio
    Codec ID                    : A_DTS
    Duration                    : 1 h 50 min
    Bit rate mode               : Variable
    Bit rate                    : 3 748 kb/s
    Channel(s)                  : 8 channels
    Channel layout              : C L R LFE Lb Rb Lss Rss
    Sampling rate               : 48.0 kHz
    Frame rate                  : 93.750 FPS (512 SPF)
    Bit depth                   : 24 bits
    Compression mode            : Lossless
    Stream size                 : 2.91 GiB (10%)
    Language                    : English
    Default                     : No
    Forced                      : No
    Original source medium      : Blu-ray

    Text #1
    ID                          : 4
    ID in the original source m : 4609 (0x1201)
    Format                      : PGS
    Muxing mode                 : zlib
    Codec ID                    : S_HDMV/PGS
    Codec ID/Info               : Picture based subtitle format used on BDs/HD-DVDs
    Duration                    : 1 h 49 min
    Bit rate                    : 46.9 kb/s
    Count of elements           : 3591
    Stream size                 : 36.7 MiB (0%)
    Language                    : Spanish
    Default                     : No
    Forced                      : No
    Original source medium      : Blu-ray

    Text #2
    ID                          : 5
    ID in the original source m : 4610 (0x1202)
    Format                      : PGS
    Muxing mode                 : zlib
    Codec ID                    : S_HDMV/PGS
    Codec ID/Info               : Picture based subtitle format used on BDs/HD-DVDs
    Duration                    : 1 h 49 min
    Bit rate                    : 538 b/s
    Count of elements           : 39
    Stream size                 : 430 KiB (0%)
    Language                    : Spanish
    Default                     : No
    Forced                      : No
    Original source medium      : Blu-ray

    Menu
    00:00:00.000                : en:Chapter 01
    00:07:30.658                : en:Chapter 02
    00:13:31.185                : en:Chapter 03
    00:20:21.845                : en:Chapter 04
    00:25:49.130                : en:Chapter 05
    00:30:03.384                : en:Chapter 06
    00:34:31.194                : en:Chapter 07
    00:38:47.491                : en:Chapter 08
    00:44:13.734                : en:Chapter 09
    00:47:59.251                : en:Chapter 10
    00:53:46.306                : en:Chapter 11
    00:58:07.525                : en:Chapter 12
    01:04:03.589                : en:Chapter 13
    01:11:54.310                : en:Chapter 14
    01:19:13.415                : en:Chapter 15
    01:27:14.062                : en:Chapter 16
    01:31:33.154                : en:Chapter 17
    01:37:00.564                : en:Chapter 18
    01:44:10.786                : en:Chapter 19
    01:46:17.579                : en:Chapter 20

  • Peso: 30.4 GiB

Sinopsis

Una mujer que lucha con la inseguridad se despierta de una caída creyendo que es la mujer más bella y capaz del planeta. Su nueva confianza le permite vivir sin miedo, pero ¿qué sucede cuando se da cuenta de que su apariencia nunca cambia?

Ficha técnica

Video trailer de la película

Enlaces de descarga

Rip de Bluray

Descargar I Feel Pretty (2018) REMUX 1080p Latino – CMHDD


Aportes de DPeliculasHDmega la pass es:dpeliculashdmega.org Aportes de CinemaniaHD la pass es:cinemaniahdd.com
Guardado en : Comedia , Romance

Películas relacionadas

descargar I Feel Pretty (2018) REMUX 1080p Latino – CMHDD Full 1080p 1080p gratis, I Feel Pretty (2018) REMUX 1080p Latino – CMHDD Full 1080p mega 1 link, I Feel Pretty (2018) REMUX 1080p Latino – CMHDD Full 1080p pelicula completa, descargar I Feel Pretty (2018) REMUX 1080p Latino – CMHDD Full 1080p gratis en mega.

I Feel Pretty (2018) REMUX 1080p Latino – CMHDD pelicula full hd, I Feel Pretty (2018) REMUX 1080p Latino – CMHDD mega latino, I Feel Pretty (2018) REMUX 1080p Latino – CMHDD 4k latino, I Feel Pretty (2018) REMUX 1080p Latino – CMHDD pelicula completa, I Feel Pretty (2018) REMUX 1080p Latino – CMHDD descargar gratis, descargar I Feel Pretty (2018) REMUX 1080p Latino – CMHDD pelicula latino, I Feel Pretty (2018) REMUX 1080p Latino – CMHDD 1 link mega, I Feel Pretty (2018) REMUX 1080p Latino – CMHDD 1 link google drive, I Feel Pretty (2018) REMUX 1080p Latino – CMHDD hd 1080p latino.
Comentarios 0