×

¿Problemas para descargar con Mozilla, EDGE? Deshabilita la opción "Abrir vinculos en una pestaña nueva" tal como lo muestra ésta imagen.

I Am Number Four (2011) REMUX 1080p Latino – CMHDD

190 vistas

Información de I Am Number Four (2011) REMUX 1080p Latino – CMHDD

Datos de la película

  • Calidad: Full 1080p
  • Audio: Español Latino AC3 5.1 BLURAY - Ingles DTS 5.1 BLURAY
  • Subtitulos: Español Latino PGS
  • Resolución: 1920x1080p
  • Formato: MKV
  • Codec: H.264
  • Encoder: Dracarys
  • Mediainfo: Clic para Mostrar Datos Ver
  • Format                      : Matroska
    Format version              : Version 4
    File size                   : 23.2 GiB
    Duration                    : 1 h 49 min
    Overall bit rate mode       : Variable
    Overall bit rate            : 30.3 Mb/s
    Movie name                  : I Am Number Four (2011) REMUX 1080p Latino - CMHDD
    Encoded date                : UTC 2023-07-05 01:18:39
    Writing application         : mkvmerge v47.0.0 ('Black Flag') 64-bit
    Writing library             : libebml v1.3.10 + libmatroska v1.5.2
    Cover                       : Yes
    Attachments                 : cover.jpg

    Video
    ID                          : 1
    Format                      : AVC
    Format/Info                 : Advanced Video Codec
    Format profile              : High@L4.1
    Format settings             : CABAC / 4 Ref Frames
    Format settings, CABAC      : Yes
    Format settings, Reference  : 4 frames
    Codec ID                    : V_MPEG4/ISO/AVC
    Duration                    : 1 h 49 min
    Bit rate mode               : Variable
    Bit rate                    : 25.3 Mb/s
    Maximum bit rate            : 34.0 Mb/s
    Width                       : 1 920 pixels
    Height                      : 1 080 pixels
    Display aspect ratio        : 16:9
    Frame rate mode             : Constant
    Frame rate                  : 23.976 (24000/1001) FPS
    Color space                 : YUV
    Chroma subsampling          : 4:2:0
    Bit depth                   : 8 bits
    Scan type                   : Progressive
    Bits/(Pixel*Frame)          : 0.509
    Stream size                 : 19.4 GiB (84%)
    Default                     : Yes
    Forced                      : No

    Audio #1
    ID                          : 2
    Format                      : DTS XLL
    Format/Info                 : Digital Theater Systems
    Commercial name             : DTS-HD Master Audio
    Codec ID                    : A_DTS
    Duration                    : 1 h 49 min
    Bit rate mode               : Variable
    Bit rate                    : 4 022 kb/s
    Channel(s)                  : 6 channels
    Channel layout              : C L R Ls Rs LFE
    Sampling rate               : 48.0 kHz
    Frame rate                  : 93.750 FPS (512 SPF)
    Bit depth                   : 24 bits
    Compression mode            : Lossless
    Stream size                 : 3.08 GiB (13%)
    Language                    : English
    Default                     : No
    Forced                      : No

    Audio #2
    ID                          : 3
    Format                      : AC-3
    Format/Info                 : Audio Coding 3
    Commercial name             : Dolby Digital
    Format settings             : Dolby Surround
    Codec ID                    : A_AC3
    Duration                    : 1 h 49 min
    Bit rate mode               : Constant
    Bit rate                    : 320 kb/s
    Channel(s)                  : 2 channels
    Channel layout              : L R
    Sampling rate               : 48.0 kHz
    Frame rate                  : 31.250 FPS (1536 SPF)
    Compression mode            : Lossy
    Stream size                 : 251 MiB (1%)
    Language                    : English
    Service kind                : Complete Main
    Default                     : No
    Forced                      : No

    Audio #3
    ID                          : 4
    Format                      : AC-3
    Format/Info                 : Audio Coding 3
    Commercial name             : Dolby Digital
    Codec ID                    : A_AC3
    Duration                    : 1 h 49 min
    Bit rate mode               : Constant
    Bit rate                    : 640 kb/s
    Channel(s)                  : 6 channels
    Channel layout              : L R C LFE Ls Rs
    Sampling rate               : 48.0 kHz
    Frame rate                  : 31.250 FPS (1536 SPF)
    Compression mode            : Lossy
    Stream size                 : 502 MiB (2%)
    Language                    : Spanish
    Service kind                : Complete Main
    Default                     : Yes
    Forced                      : No

    Text #1
    ID                          : 5
    Format                      : PGS
    Muxing mode                 : zlib
    Codec ID                    : S_HDMV/PGS
    Codec ID/Info               : Picture based subtitle format used on BDs/HD-DVDs
    Duration                    : 1 h 39 min
    Bit rate                    : 22.9 kb/s
    Frame rate                  : 0.314 FPS
    Count of elements           : 1870
    Stream size                 : 16.2 MiB (0%)
    Language                    : Spanish
    Default                     : No
    Forced                      : No

    Text #2
    ID                          : 6
    Format                      : PGS
    Muxing mode                 : zlib
    Codec ID                    : S_HDMV/PGS
    Codec ID/Info               : Picture based subtitle format used on BDs/HD-DVDs
    Duration                    : 1 h 43 min
    Bit rate                    : 740 b/s
    Frame rate                  : 0.009 FPS
    Count of elements           : 54
    Stream size                 : 561 KiB (0%)
    Language                    : Spanish
    Default                     : Yes
    Forced                      : No

    Menu
    00:00:00.000                : en:Capítulo 01
    00:04:09.249                : en:Capítulo 02
    00:11:33.192                : en:Capítulo 03
    00:18:00.454                : en:Capítulo 04
    00:25:41.373                : en:Capítulo 05
    00:30:58.106                : en:Capítulo 06
    00:39:29.533                : en:Capítulo 07
    00:45:30.310                : en:Capítulo 08
    00:54:51.663                : en:Capítulo 09
    01:03:43.402                : en:Capítulo 10
    01:14:23.208                : en:Capítulo 11
    01:21:59.789                : en:Capítulo 12
    01:27:39.337                : en:Capítulo 13
    01:32:27.625                : en:Capítulo 14
    01:37:03.567                : en:Capítulo 15
    01:41:56.151                : en:Capítulo 16

  • Peso: 23.2 GiB

Sinopsis

Aunque tenga la apariencia de un adolescente normal y corriente, John Smith (Alex Pettyfer) es en realidad un extraterrestre que vive entre los humanos. Su principal obsesión es ocultarse de unos enemigos que quieren matarle igual que ya han hecho con otros tres alienígenas; de ahí que John sea consciente de que él es el número cuatro y busque la protección que le brinda Henri, su guardián (Timothy Olyphant). Tras pasar por varias ciudades en una huida que no parece tener fin, John llega hasta una pequeña localidad de Ohio. Allí no sólo tendrá que hacer frente a sus enemigos, sino también a su primer amor (Dianna Agron). Además, el chico experimentará la capacidad sobrenatural para ejercer nuevos poderes y tomará contacto con los otros tres seres que no pudieron escapar a su fatídico destino.

Ficha técnica

Video trailer de la película

Enlaces de descarga

Rip de Bluray

Descargar I Am Number Four (2011) REMUX 1080p Latino – CMHDD


Aportes de DPeliculasHDmega la pass es:dpeliculashdmega.org Aportes de CinemaniaHD la pass es:cinemaniahdd.com Aportes recientes:cinemaniahdd.net

Películas relacionadas

  • The Lego Movie (2014) REMUX 4K HDR Latino – CMHDD

    The Lego Movie (2014) REMUX 4K HDR Latino – CMHDD

    2014
    The Lego Movie (2014) REMUX 4K HDR Latino – CMHDD

    1h 40m 2014

    Película basada en los clásicos juguetes LEGO. Emmet, el protagonista de la película, trabaja como...

    Director: Vernessa Cook

    Género: Animación

    Actores: Will Forte

  • The Lego Movie (2014) REMUX 1080p Latino – CMHDD

    The Lego Movie (2014) REMUX 1080p Latino – CMHDD

    2014
    The Lego Movie (2014) REMUX 1080p Latino – CMHDD

    1h 40m 2014

    Película basada en los clásicos juguetes LEGO. Emmet, el protagonista de la película, trabaja como...

    Director: Vernessa Cook

    Género: Animación

    Actores: Will Forte

  • Familia Nacional (2023) WEB-DL 1080p Latino

    Familia Nacional (2023) WEB-DL 1080p Latino

    2023
    Familia Nacional (2023) WEB-DL 1080p Latino

    1h 43m 2023

    Descargar Familia Nacional (2023) WEB-DL 1080p Latino. Don Poli es el patriarca de una familia disfuncional...

    Director: Marcelo Tobar

    Género: Acción

    Actores: Tadeo Tovar

descargar I Am Number Four (2011) REMUX 1080p Latino – CMHDD Full 1080p 1080p gratis, I Am Number Four (2011) REMUX 1080p Latino – CMHDD Full 1080p mega 1 link, I Am Number Four (2011) REMUX 1080p Latino – CMHDD Full 1080p pelicula completa, descargar I Am Number Four (2011) REMUX 1080p Latino – CMHDD Full 1080p gratis en mega.

I Am Number Four (2011) REMUX 1080p Latino – CMHDD pelicula full hd, I Am Number Four (2011) REMUX 1080p Latino – CMHDD mega latino, I Am Number Four (2011) REMUX 1080p Latino – CMHDD 4k latino, I Am Number Four (2011) REMUX 1080p Latino – CMHDD pelicula completa, I Am Number Four (2011) REMUX 1080p Latino – CMHDD descargar gratis, descargar I Am Number Four (2011) REMUX 1080p Latino – CMHDD pelicula latino, I Am Number Four (2011) REMUX 1080p Latino – CMHDD 1 link mega, I Am Number Four (2011) REMUX 1080p Latino – CMHDD 1 link google drive, I Am Number Four (2011) REMUX 1080p Latino – CMHDD hd 1080p latino.
Comentarios 0