×

¿Problemas para descargar con Mozilla, EDGE? Deshabilita la opción "Abrir vinculos en una pestaña nueva" tal como lo muestra ésta imagen.

Hustle & Flow (2005) REMUX 1080p Latino

44 vistas

Información de Hustle & Flow (2005) REMUX 1080p Latino

Datos de la película

  • Calidad: Full 1080p
  • Audio: Español Latino AC3 5.1 BLURAY - Ingles AC3 5.1 BLURAY
  • Subtitulos: Español Latino PGS - Ingles PGS
  • Resolución: 1920x1080p
  • Formato: MKV
  • Codec: H.264
  • Encoder: CinefiloCool
  • Mediainfo: Clic para Mostrar Datos Ver
  • Hustle & Flow (2005) REMUX 1080p Latino-CMHDD.mkv
    Format                      : Matroska
    Format version              : Version 4
    File size                   : 27.8 GiB
    Duration                    : 1 h 56 min
    Overall bit rate mode       : Variable
    Overall bit rate            : 34.1 Mb/s
    Movie name                  : Hustle & Flow (2005) CinemaniaHDD.Net
    Encoded date                : UTC 2022-10-14 07:11:40
    Writing application         : mkvmerge v56.1.0 ('My Friend') 64-bit
    Writing library             : libebml v1.4.2 + libmatroska v1.6.4
    Attachments                 : CINEMANIAHD.png

    Video
    ID                          : 1
    Format                      : AVC
    Format/Info                 : Advanced Video Codec
    Format profile              : High@L4.1
    Format settings             : CABAC / 2 Ref Frames
    Format settings, CABAC      : Yes
    Format settings, Reference  : 2 frames
    Codec ID                    : V_MPEG4/ISO/AVC
    Duration                    : 1 h 56 min
    Bit rate mode               : Variable
    Bit rate                    : 32.8 Mb/s
    Width                       : 1 920 pixels
    Height                      : 1 080 pixels
    Display aspect ratio        : 16:9
    Frame rate mode             : Constant
    Frame rate                  : 23.976 (24000/1001) FPS
    Color space                 : YUV
    Chroma subsampling          : 4:2:0
    Bit depth                   : 8 bits
    Scan type                   : Progressive
    Bits/(Pixel*Frame)          : 0.661
    Stream size                 : 26.7 GiB (96%)
    Title                       : REMUX HD1080p [CinemaniaHDD]
    Default                     : Yes
    Forced                      : Yes

    Audio #1
    ID                          : 2
    Format                      : AC-3
    Format/Info                 : Audio Coding 3
    Commercial name             : Dolby Digital
    Codec ID                    : A_AC3
    Duration                    : 1 h 56 min
    Bit rate mode               : Constant
    Bit rate                    : 640 kb/s
    Channel(s)                  : 6 channels
    Channel layout              : L R C LFE Ls Rs
    Sampling rate               : 48.0 kHz
    Frame rate                  : 31.250 FPS (1536 SPF)
    Compression mode            : Lossy
    Stream size                 : 533 MiB (2%)
    Title                       : Español Latino [CinemaniaHDD]
    Language                    : Spanish
    Service kind                : Complete Main
    Default                     : Yes
    Forced                      : Yes

    Audio #2
    ID                          : 3
    Format                      : AC-3
    Format/Info                 : Audio Coding 3
    Commercial name             : Dolby Digital
    Codec ID                    : A_AC3
    Duration                    : 1 h 56 min
    Bit rate mode               : Constant
    Bit rate                    : 640 kb/s
    Channel(s)                  : 6 channels
    Channel layout              : L R C LFE Ls Rs
    Sampling rate               : 48.0 kHz
    Frame rate                  : 31.250 FPS (1536 SPF)
    Compression mode            : Lossy
    Stream size                 : 533 MiB (2%)
    Title                       : Ingles [CinemaniaHDD]
    Language                    : English
    Service kind                : Complete Main
    Default                     : No
    Forced                      : No

    Text #1
    ID                          : 4
    Format                      : PGS
    Muxing mode                 : zlib
    Codec ID                    : S_HDMV/PGS
    Codec ID/Info               : Picture based subtitle format used on BDs/HD-DVDs
    Duration                    : 1 h 54 min
    Bit rate                    : 35.9 kb/s
    Count of elements           : 3050
    Stream size                 : 29.5 MiB (0%)
    Title                       : Español-PGS [CinemaniaHDD]
    Language                    : Spanish
    Default                     : No
    Forced                      : No

    Text #2
    ID                          : 5
    Format                      : PGS
    Muxing mode                 : zlib
    Codec ID                    : S_HDMV/PGS
    Codec ID/Info               : Picture based subtitle format used on BDs/HD-DVDs
    Duration                    : 1 h 49 min
    Bit rate                    : 52.6 kb/s
    Count of elements           : 3384
    Stream size                 : 41.3 MiB (0%)
    Title                       : Ingles [CinemaniaHDD]
    Language                    : English
    Default                     : No
    Forced                      : No

    Text #3
    ID                          : 6
    Format                      : UTF-8
    Codec ID                    : S_TEXT/UTF8
    Codec ID/Info               : UTF-8 Plain Text
    Duration                    : 1 h 41 min
    Bit rate                    : 8 b/s
    Count of elements           : 131
    Stream size                 : 6.03 KiB (0%)
    Title                       : Forzados-SRT [CinemaniaHDD]
    Language                    : Spanish
    Default                     : Yes
    Forced                      : Yes

    Text #4
    ID                          : 7
    Format                      : UTF-8
    Codec ID                    : S_TEXT/UTF8
    Codec ID/Info               : UTF-8 Plain Text
    Duration                    : 1 h 54 min
    Bit rate                    : 57 b/s
    Count of elements           : 1525
    Stream size                 : 48.3 KiB (0%)
    Title                       : Español-SRT [CinemaniaHDD]
    Language                    : Spanish
    Default                     : No
    Forced                      : No

    Menu
    00:00:00.000                : Chapter 01
    00:05:13.355                : Chapter 02
    00:11:22.015                : Chapter 03
    00:14:54.352                : Chapter 04
    00:20:14.380                : Chapter 05
    00:25:26.942                : Chapter 06
    00:30:47.179                : Chapter 07
    00:35:33.465                : Chapter 08
    00:41:54.554                : Chapter 09
    00:49:50.237                : Chapter 10
    00:58:52.946                : Chapter 11
    01:04:06.801                : Chapter 12
    01:10:07.912                : Chapter 13
    01:17:18.050                : Chapter 14
    01:23:09.067                : Chapter 15
    01:31:26.731                : Chapter 16
    01:35:41.611                : Chapter 17
    01:41:00.972                : Chapter 18
    01:47:29.234                : Chapter 19

  • Peso: 27.8 GiB

Sinopsis

Descargar Hustle & Flow (2005) REMUX 1080p Latino. Narra la historia de un proxeneta de Memphis en crisis llamado D-jay (Terrence Howard) quien, al enterarse que un antiguo compañero, que es ahora un rapero famoso (Ludacris), regresa a casa para una fiesta especial, decide grabar un demo para entregárselo y así cumplir su sueño de ser rapero. Con ayuda de Key (Anthony Anderson) un amigo y ex compañero de la escuela, Shug (Taraji P. Henson) una de sus prostitutas quien esta embarazada y enamorada de él, Nola (Taryn Manning) otra prostituta que lo ve como un padre y Shelby (DJ Qualls) un ingeniero de sonido, logrará narrar su historia a través de canciones que retratan la difícil vida que lleva en los barrios bajos de Memphis.

Disponible Solo Para VIP!!!

Ficha técnica

Video trailer de la película

Enlaces de descarga

Rip de Bluray

Descargar Hustle & Flow (2005) REMUX 1080p Latino


Aportes de DPeliculasHDmega la pass es:dpeliculashdmega.org Aportes de CinemaniaHD la pass es:cinemaniahdd.com
Guardado en : Drama , Música , Remux

Películas relacionadas

descargar Hustle & Flow (2005) REMUX 1080p Latino Full 1080p 1080p gratis, Hustle & Flow (2005) REMUX 1080p Latino Full 1080p mega 1 link, Hustle & Flow (2005) REMUX 1080p Latino Full 1080p pelicula completa, descargar Hustle & Flow (2005) REMUX 1080p Latino Full 1080p gratis en mega.

Hustle & Flow (2005) REMUX 1080p Latino pelicula full hd, Hustle & Flow (2005) REMUX 1080p Latino mega latino, Hustle & Flow (2005) REMUX 1080p Latino 4k latino, Hustle & Flow (2005) REMUX 1080p Latino pelicula completa, Hustle & Flow (2005) REMUX 1080p Latino descargar gratis, descargar Hustle & Flow (2005) REMUX 1080p Latino pelicula latino, Hustle & Flow (2005) REMUX 1080p Latino 1 link mega, Hustle & Flow (2005) REMUX 1080p Latino 1 link google drive, Hustle & Flow (2005) REMUX 1080p Latino hd 1080p latino.
Comentarios 0