×

¿Problemas para descargar con Mozilla, EDGE? Deshabilita la opción "Abrir vinculos en una pestaña nueva" tal como lo muestra ésta imagen.

Hunters (2023) Segunda Temporada AMZN WEB-DL 1080p Latino

33 vistas

Información de Hunters (2023) Segunda Temporada AMZN WEB-DL 1080p Latino

Datos de la película

  • Calidad: 1080p
  • Audio: Español Latino AC3 5.1 WEB-DL - Ingles AC3 5.1 WEB-DL
  • Subtitulos: Español Latino SRT- FORZADOS SRT
  • Resolución: 1920x1080
  • Formato: MKV
  • Codec: H.264
  • Encoder: cinemaniahdd
  • Mediainfo: Clic para Mostrar Datos Ver
  • Hunters T02E01 AMZN WEB-DL 1080p Latino [CNMNHDD].mkv
    Format                      : Matroska
    Format version              : Version 4
    File size                   : 2.61 GiB
    Duration                    : 55 min 29 s
    Overall bit rate            : 6 726 kb/s
    Movie name                  : Hunters S02E01 - Van Glootens Day 1972 Butter Sculptor of the Year [1080p] - CinemaniaHDD.Net
    Encoded date                : UTC 2023-01-13 00:24:42
    Writing application         : mkvmerge v56.1.0 ('My Friend') 64-bit
    Writing library             : libebml v1.4.2 + libmatroska v1.6.4

    Video
    ID                          : 1
    Format                      : AVC
    Format/Info                 : Advanced Video Codec
    Format profile              : High@L4
    Format settings             : CABAC / 4 Ref Frames
    Format settings, CABAC      : Yes
    Format settings, Reference  : 4 frames
    Codec ID                    : V_MPEG4/ISO/AVC
    Duration                    : 55 min 29 s
    Bit rate mode               : Constant
    Bit rate                    : 4 804 kb/s
    Nominal bit rate            : 10 000 kb/s
    Width                       : 1 920 pixels
    Height                      : 1 080 pixels
    Display aspect ratio        : 16:9
    Frame rate mode             : Constant
    Frame rate                  : 23.976 (24000/1001) FPS
    Color space                 : YUV
    Chroma subsampling          : 4:2:0
    Bit depth                   : 8 bits
    Scan type                   : Progressive
    Bits/(Pixel*Frame)          : 0.097
    Stream size                 : 1.86 GiB (71%)
    Title                       : CinemaniaHDD
    Default                     : Yes
    Forced                      : No
    Color range                 : Limited
    Color primaries             : BT.709
    Transfer characteristics    : BT.709
    Matrix coefficients         : BT.709

    Audio #1
    ID                          : 2
    Format                      : AC-3
    Format/Info                 : Audio Coding 3
    Commercial name             : Dolby Digital
    Codec ID                    : A_AC3
    Duration                    : 55 min 29 s
    Bit rate mode               : Constant
    Bit rate                    : 640 kb/s
    Channel(s)                  : 6 channels
    Channel layout              : L R C LFE Ls Rs
    Sampling rate               : 48.0 kHz
    Frame rate                  : 31.250 FPS (1536 SPF)
    Compression mode            : Lossy
    Stream size                 : 254 MiB (10%)
    Title                       : Español latino [CinemaniaHDD]
    Language                    : Spanish
    Service kind                : Complete Main
    Default                     : Yes
    Forced                      : No

    Audio #2
    ID                          : 3
    Format                      : E-AC-3
    Format/Info                 : Enhanced AC-3
    Commercial name             : Dolby Digital Plus
    Codec ID                    : A_EAC3
    Duration                    : 55 min 29 s
    Bit rate mode               : Constant
    Bit rate                    : 640 kb/s
    Channel(s)                  : 6 channels
    Channel layout              : L R C LFE Ls Rs
    Sampling rate               : 48.0 kHz
    Frame rate                  : 31.250 FPS (1536 SPF)
    Compression mode            : Lossy
    Stream size                 : 254 MiB (10%)
    Title                       : Español latino / E-AC3 [CinemaniaHDD]
    Language                    : Spanish
    Service kind                : Complete Main
    Default                     : No
    Forced                      : No

    Audio #3
    ID                          : 4
    Format                      : E-AC-3
    Format/Info                 : Enhanced AC-3
    Commercial name             : Dolby Digital Plus
    Codec ID                    : A_EAC3
    Duration                    : 55 min 29 s
    Bit rate mode               : Constant
    Bit rate                    : 640 kb/s
    Channel(s)                  : 6 channels
    Channel layout              : L R C LFE Ls Rs
    Sampling rate               : 48.0 kHz
    Frame rate                  : 31.250 FPS (1536 SPF)
    Compression mode            : Lossy
    Stream size                 : 254 MiB (10%)
    Title                       : Inglés [CinemaniaHDD]
    Language                    : English
    Service kind                : Complete Main
    Default                     : No
    Forced                      : No

    Text #1
    ID                          : 5
    Format                      : UTF-8
    Codec ID                    : S_TEXT/UTF8
    Codec ID/Info               : UTF-8 Plain Text
    Duration                    : 52 min 29 s
    Bit rate                    : 3 b/s
    Count of elements           : 57
    Stream size                 : 1.40 KiB (0%)
    Title                       : Forzados [CinemaniaHDD]
    Language                    : Spanish
    Default                     : Yes
    Forced                      : Yes

    Text #2
    ID                          : 6
    Format                      : UTF-8
    Codec ID                    : S_TEXT/UTF8
    Codec ID/Info               : UTF-8 Plain Text
    Duration                    : 54 min 8 s
    Bit rate                    : 44 b/s
    Count of elements           : 514
    Stream size                 : 17.8 KiB (0%)
    Title                       : Español latino [CinemaniaHDD]
    Language                    : Spanish
    Default                     : No
    Forced                      : No

    Text #3
    ID                          : 7
    Format                      : UTF-8
    Codec ID                    : S_TEXT/UTF8
    Codec ID/Info               : UTF-8 Plain Text
    Duration                    : 54 min 7 s
    Bit rate                    : 60 b/s
    Count of elements           : 893
    Stream size                 : 23.9 KiB (0%)
    Title                       : Inglés [CinemaniaHDD]
    Language                    : English
    Default                     : No
    Forced                      : No

    Menu
    00:00:00.000                : Prime Video
    00:00:06.000                : Scene 2
    00:01:08.000                : Scene 3
    00:02:24.000                : Scene 4
    00:04:14.000                : Opening Credits
    00:05:38.000                : Scene 6
    00:05:45.000                : Scene 7
    00:10:17.000                : Scene 8
    00:11:56.000                : Scene 9
    00:13:36.000                : Scene 10
    00:13:43.000                : Scene 11
    00:13:56.000                : Scene 12
    00:14:35.000                : Scene 13
    00:15:46.000                : Scene 14
    00:16:28.000                : Scene 15
    00:18:45.000                : Scene 16
    00:20:30.000                : Scene 17
    00:24:27.000                : Scene 18
    00:25:16.000                : Scene 19
    00:27:19.000                : Scene 20
    00:28:55.000                : Scene 21
    00:32:25.000                : Scene 22
    00:33:30.000                : Scene 23
    00:35:02.000                : Scene 24
    00:37:43.000                : Scene 25
    00:38:49.000                : Scene 26
    00:40:29.000                : Scene 27
    00:46:22.000                : End Credits

     

  • Peso: 2.61 GiB Aprox ---- 21 GiB in 8 Chapters.

Sinopsis

Después de que un accidente arruina sus planes en Europa, los cazadores deben reunirse para cazar al nazi más infame de la historia: Adolf Hitler, quien se esconde en Sudamérica. En el pasado, Meyer Offerman (Al Pacino) lucha por mantener su identidad oculta y uno de los terribles secretos de Meyer tienen repercusiones para los cazadores.

Ficha técnica

Video trailer de la película

Enlaces de descarga

Rip de Bluray

Descargar Hunters (2023) Segunda Temporada AMZN WEB-DL 1080p Latino




Aportes de DPeliculasHDmega la pass es:dpeliculashdmega.org Aportes de CinemaniaHD la pass es:cinemaniahdd.com
Guardado en : Crimen , Drama , Series

Películas relacionadas

  • Juego de espías (2001) 1080p Latino

    Juego de espías (2001) 1080p Latino

    2001
    Juego de espías (2001) 1080p Latino

    2h 6m 2001

    Descargar Juego de espías (2001) 1080p Latino. Corre el año 1991, y al veterano agente de la CIA Nathan...

    Director: Tony Scott

    Género: Acción

    Actores: Zsolt Zágoni

  • Juego de espías (2001) Full HD 1080p Latino

    Juego de espías (2001) Full HD 1080p Latino

    2001
    Juego de espías (2001) Full HD 1080p Latino

    2h 6m 2001

    Descargar Juego de espías (2001) Full HD 1080p Latino. Corre el año 1991, y al veterano agente de la...

    Director: Tony Scott

    Género: Acción

    Actores: Zsolt Zágoni

  • Juego de espías (2001) REMUX 1080p Latino

    Juego de espías (2001) REMUX 1080p Latino

    2001
    Juego de espías (2001) REMUX 1080p Latino

    1h 55m 2001

    Descargar Juego de espías (2001) REMUX 1080p Latino. El día de su jubilación, el veterano agente de...

    Director: Tony Scott

    Género: Acción

    Actores: Zsolt Zágoni

  • Hombre de familia (2000) REMUX 1080p Latino

    Hombre de familia (2000) REMUX 1080p Latino

    2000
    Hombre de familia (2000) REMUX 1080p Latino

    2h 1m 2000

    Descargar Hombre de familia (2000) REMUX 1080p Latino. Jack Campbell es un egocéntrico broker de Wall...

    Director: Robert Schroer

    Género: Comedia

    Actores: Wass Stevens

descargar Hunters (2023) Segunda Temporada AMZN WEB-DL 1080p Latino 1080p 1080p gratis, Hunters (2023) Segunda Temporada AMZN WEB-DL 1080p Latino 1080p mega 1 link, Hunters (2023) Segunda Temporada AMZN WEB-DL 1080p Latino 1080p serie completa, descargar Hunters (2023) Segunda Temporada AMZN WEB-DL 1080p Latino 1080p gratis en mega.

Hunters (2023) Segunda Temporada AMZN WEB-DL 1080p Latino pelicula full hd, Hunters (2023) Segunda Temporada AMZN WEB-DL 1080p Latino mega latino, Hunters (2023) Segunda Temporada AMZN WEB-DL 1080p Latino 4k latino, Hunters (2023) Segunda Temporada AMZN WEB-DL 1080p Latino pelicula completa, Hunters (2023) Segunda Temporada AMZN WEB-DL 1080p Latino descargar gratis, descargar Hunters (2023) Segunda Temporada AMZN WEB-DL 1080p Latino pelicula latino, Hunters (2023) Segunda Temporada AMZN WEB-DL 1080p Latino 1 link mega, Hunters (2023) Segunda Temporada AMZN WEB-DL 1080p Latino 1 link google drive, Hunters (2023) Segunda Temporada AMZN WEB-DL 1080p Latino hd 1080p latino.
Comentarios 0