×

¿Problemas para descargar con Mozilla, EDGE? Deshabilita la opción "Abrir vinculos en una pestaña nueva" tal como lo muestra ésta imagen.

Hunters (2020) Temporada 1 AMZN WEB-DL 1080p Latino

1.473 vistas

Información de Hunters (2020) Temporada 1 AMZN WEB-DL 1080p Latino

Datos de la película

  • Calidad: WEBDL
  • Audio: Español Latino AC3 5.1 AMAZON - Ingles AC3 5.1 AMAZON
  • Subtitulos: Español Latino SRT- FORZADOS SRT
  • Resolución: 1920x1080
  • Formato: MKV
  • Codec: H.264
  • Encoder: cinemaniahdd
  • Mediainfo: Clic para Mostrar Datos Ver
  • Hunters T01E01 AMZN WEB-DL 1080p Latino.mkv
    Format                      : Matroska
    Format version              : Version 4
    File size                   : 4.67 GiB
    Duration                    : 1 h 30 min
    Overall bit rate            : 7 412 kb/s
    Movie name                  : Hunters T01E01 - CinemaniaHDD.Net
    Encoded date                : UTC 2020-02-22 18:46:57
    Writing application         : mkvmerge v42.0.0 ('Overtime') 64-bit
    Writing library             : libebml v1.3.10 + libmatroska v1.5.2

    Video
    ID                          : 1
    Format                      : AVC
    Format/Info                 : Advanced Video Codec
    Format profile              : High@L4
    Format settings             : CABAC / 4 Ref Frames
    Format settings, CABAC      : Yes
    Format settings, ReFrames   : 4 frames
    Codec ID                    : V_MPEG4/ISO/AVC
    Duration                    : 1 h 30 min
    Bit rate mode               : Constant
    Bit rate                    : 6 130 kb/s
    Nominal bit rate            : 10 000 kb/s
    Width                       : 1 920 pixels
    Height                      : 1 080 pixels
    Display aspect ratio        : 16:9
    Frame rate mode             : Constant
    Frame rate                  : 23.976 (24000/1001) FPS
    Color space                 : YUV
    Chroma subsampling          : 4:2:0
    Bit depth                   : 8 bits
    Scan type                   : Progressive
    Bits/(Pixel*Frame)          : 0.123
    Stream size                 : 3.87 GiB (83%)
    Title                       : CinemaniaHDD
    Default                     : Yes
    Forced                      : No
    Color range                 : Limited
    Color primaries             : BT.709
    Transfer characteristics    : BT.709
    Matrix coefficients         : BT.709

    Audio #1
    ID                          : 2
    Format                      : E-AC-3
    Format/Info                 : Enhanced AC-3
    Commercial name             : Dolby Digital Plus
    Codec ID                    : A_EAC3
    Duration                    : 1 h 30 min
    Bit rate mode               : Constant
    Bit rate                    : 640 kb/s
    Channel(s)                  : 6 channels
    Channel layout              : L R C LFE Ls Rs
    Sampling rate               : 48.0 kHz
    Frame rate                  : 31.250 FPS (1536 SPF)
    Compression mode            : Lossy
    Stream size                 : 413 MiB (9%)
    Title                       : Español latino [CinemaniaHDD]
    Language                    : Spanish
    Service kind                : Complete Main
    Default                     : Yes
    Forced                      : No

    Audio #2
    ID                          : 3
    Format                      : E-AC-3
    Format/Info                 : Enhanced AC-3
    Commercial name             : Dolby Digital Plus
    Codec ID                    : A_EAC3
    Duration                    : 1 h 30 min
    Bit rate mode               : Constant
    Bit rate                    : 640 kb/s
    Channel(s)                  : 6 channels
    Channel layout              : L R C LFE Ls Rs
    Sampling rate               : 48.0 kHz
    Frame rate                  : 31.250 FPS (1536 SPF)
    Compression mode            : Lossy
    Stream size                 : 413 MiB (9%)
    Title                       : Inglés [CinemaniaHDD]
    Language                    : English
    Service kind                : Complete Main
    Default                     : No
    Forced                      : No

    Text #1
    ID                          : 4
    Format                      : UTF-8
    Codec ID                    : S_TEXT/UTF8
    Codec ID/Info               : UTF-8 Plain Text
    Duration                    : 1 h 26 min
    Bit rate                    : 1 b/s
    Count of elements           : 47
    Stream size                 : 1.12 KiB (0%)
    Title                       : Forzados [CinemaniaHDD]
    Language                    : Spanish
    Default                     : Yes
    Forced                      : Yes

    Text #2
    ID                          : 5
    Format                      : UTF-8
    Codec ID                    : S_TEXT/UTF8
    Codec ID/Info               : UTF-8 Plain Text
    Duration                    : 1 h 27 min
    Bit rate                    : 52 b/s
    Count of elements           : 1128
    Stream size                 : 33.9 KiB (0%)
    Title                       : Español latino [CinemaniaHDD]
    Language                    : Spanish
    Default                     : No
    Forced                      : No

     

  • Peso: 4.67 GiB C/U

Sinopsis

Una banda diversa de cazadores nazis que viven en 1977 en la ciudad de Nueva York descubre que cientos de oficiales nazis de alto rango viven entre nosotros y conspiran para crear un Cuarto Reich en los EE. UU. justicia y frustrar sus nuevos planes genocidas.

Ficha técnica

  • Titulo original: Hunters
  • Fecha de lanzamiento: 21-02-2020 (US)
  • Director: David Weil
  • Género: Crimen, Drama

Video trailer de la película

Enlaces de descarga

Rip de Bluray

Descargar Hunters (2020) Temporada 1 AMZN WEB-DL 1080p Latino




Aportes de DPeliculasHDmega la pass es:dpeliculashdmega.org Aportes de CinemaniaHD la pass es:cinemaniahdd.com
Guardado en : Crimen , Drama

Películas relacionadas

descargar Hunters (2020) Temporada 1 AMZN WEB-DL 1080p Latino WEBDL 1080p gratis, Hunters (2020) Temporada 1 AMZN WEB-DL 1080p Latino WEBDL mega 1 link, Hunters (2020) Temporada 1 AMZN WEB-DL 1080p Latino WEBDL pelicula completa, descargar Hunters (2020) Temporada 1 AMZN WEB-DL 1080p Latino WEBDL gratis en mega.

Hunters (2020) Temporada 1 AMZN WEB-DL 1080p Latino pelicula full hd, Hunters (2020) Temporada 1 AMZN WEB-DL 1080p Latino mega latino, Hunters (2020) Temporada 1 AMZN WEB-DL 1080p Latino 4k latino, Hunters (2020) Temporada 1 AMZN WEB-DL 1080p Latino pelicula completa, Hunters (2020) Temporada 1 AMZN WEB-DL 1080p Latino descargar gratis, descargar Hunters (2020) Temporada 1 AMZN WEB-DL 1080p Latino pelicula latino, Hunters (2020) Temporada 1 AMZN WEB-DL 1080p Latino 1 link mega, Hunters (2020) Temporada 1 AMZN WEB-DL 1080p Latino 1 link google drive, Hunters (2020) Temporada 1 AMZN WEB-DL 1080p Latino hd 1080p latino.
Comentarios 1