×

¿Problemas para descargar con Mozilla, EDGE? Deshabilita la opción "Abrir vinculos en una pestaña nueva" tal como lo muestra ésta imagen.

La invención de Hugo Cabret (2011) 4K UHD SDR WEB Latino

592 vistas

Información de La invención de Hugo Cabret (2011) 4K UHD SDR WEB Latino

Datos de la película

  • Calidad: WEBDL
  • Audio: Se especifica abajo de la Sinopsis
  • Subtitulos: Español Latino SRT - Ingles SRT
  • Resolución: 3840x2160p
  • Formato: MKV
  • Codec: HEVC
  • Encoder: CinefiloCool
  • Mediainfo: Clic para Mostrar Datos Ver
  • La invención de Hugo (2011) 4K UHD SDR WEB Latino-CMHDD.mkv
    Format                      : Matroska
    Format version              : Version 4
    File size                   : 13.7 GiB
    Duration                    : 2 h 6 min
    Overall bit rate            : 15.6 Mb/s
    Movie name                  : Hugo (2011) CinemaniaHDD.Net
    Encoded date                : UTC 2020-07-29 04:01:59
    Writing application         : mkvmerge v46.0.0 ('No Deeper Escape') 64-bit
    Writing library             : libebml v1.3.10 + libmatroska v1.5.2
    Attachments                 : CINEMANIAHD.png

    Video
    ID                          : 1
    Format                      : HEVC
    Format/Info                 : High Efficiency Video Coding
    Format profile              : Main@L5@High
    Codec ID                    : V_MPEGH/ISO/HEVC
    Duration                    : 2 h 6 min
    Bit rate                    : 14.3 Mb/s
    Width                       : 3 840 pixels
    Height                      : 2 160 pixels
    Display aspect ratio        : 16:9
    Frame rate mode             : Constant
    Frame rate                  : 23.976 (23976/1000) FPS
    Original frame rate         : 23.976 (24000/1001) FPS
    Color space                 : YUV
    Chroma subsampling          : 4:2:0
    Bit depth                   : 8 bits
    Bits/(Pixel*Frame)          : 0.072
    Stream size                 : 12.6 GiB (92%)
    Title                       : Web 2160p SDR [CinemaniaHDD]
    Language                    : English
    Default                     : Yes
    Forced                      : No
    Color range                 : Limited
    Color primaries             : BT.709
    Transfer characteristics    : BT.709
    Matrix coefficients         : BT.709

    Audio #1
    ID                          : 2
    Format                      : E-AC-3
    Format/Info                 : Enhanced AC-3
    Commercial name             : Dolby Digital Plus
    Codec ID                    : A_EAC3
    Duration                    : 2 h 6 min
    Bit rate mode               : Constant
    Bit rate                    : 640 kb/s
    Channel(s)                  : 6 channels
    Channel layout              : L R C LFE Ls Rs
    Sampling rate               : 48.0 kHz
    Frame rate                  : 31.250 FPS (1536 SPF)
    Compression mode            : Lossy
    Stream size                 : 578 MiB (4%)
    Title                       : Español Latino [CinemaniaHDD]
    Language                    : Spanish
    Service kind                : Complete Main
    Default                     : Yes
    Forced                      : No

    Audio #2
    ID                          : 3
    Format                      : AC-3
    Format/Info                 : Audio Coding 3
    Commercial name             : Dolby Digital
    Codec ID                    : A_AC3
    Duration                    : 2 h 6 min
    Bit rate mode               : Constant
    Bit rate                    : 640 kb/s
    Channel(s)                  : 6 channels
    Channel layout              : L R C LFE Ls Rs
    Sampling rate               : 48.0 kHz
    Frame rate                  : 31.250 FPS (1536 SPF)
    Compression mode            : Lossy
    Stream size                 : 578 MiB (4%)
    Title                       : Ingles [CinemaniaHDD]
    Language                    : English
    Service kind                : Complete Main
    Default                     : No
    Forced                      : No

    Text #1
    ID                          : 4
    Format                      : UTF-8
    Codec ID                    : S_TEXT/UTF8
    Codec ID/Info               : UTF-8 Plain Text
    Duration                    : 1 h 8 min
    Bit rate                    : 0 b/s
    Count of elements           : 3
    Stream size                 : 61.0 Bytes (0%)
    Title                       : Forzados-SRT [CinemaniaHDD]
    Language                    : Spanish
    Default                     : Yes
    Forced                      : No

    Text #2
    ID                          : 5
    Format                      : UTF-8
    Codec ID                    : S_TEXT/UTF8
    Codec ID/Info               : UTF-8 Plain Text
    Duration                    : 1 h 57 min
    Bit rate                    : 32 b/s
    Count of elements           : 939
    Stream size                 : 28.4 KiB (0%)
    Title                       : Español-SRT [CinemaniaHDD]
    Language                    : Spanish
    Default                     : No
    Forced                      : No

    Text #3
    ID                          : 6
    Format                      : UTF-8
    Codec ID                    : S_TEXT/UTF8
    Codec ID/Info               : UTF-8 Plain Text
    Duration                    : 1 h 59 min
    Bit rate                    : 43 b/s
    Count of elements           : 1161
    Stream size                 : 37.9 KiB (0%)
    Title                       : Ingles-SRT [CinemaniaHDD]
    Language                    : English
    Default                     : No
    Forced                      : No

  • Peso: 13.7 GiB

Sinopsis

Descargar La invención de Hugo Cabret (2011) 4K UHD SDR WEB Latino. ‘La invención de Hugo’ cuenta la historia de Hugo Cabret (Asa Butterflied, ‘El niño con el pijama a rayas’), un niño huérfano que vive oculto en la estación de tren de París, en el año 1930. Hijo de un relojero, y habiendo heredado su habilidad con la precisión para las máquinas, intentará reconstruir un autómata que dejó incompleto su progenitor. Lo hará acompañado de una excéntrica niña, Isabelle (Chloë Grace Moretz, ‘Kick Ass. Listos para machacar’) y de un viejo juguetero (Ben Kingsley, ‘La lista de Schlinder’), que no es otro que George Méliès. A partir de el momento que se encuentren, se internarán juntos en un mundo inesperado repleto de fantasías en el que cada uno encontrará sus propias respuestas a los enigmas tanto terrenales como de su imaginación. En la era de los inventos, de las máquinas y de la ciencia ficción, todo es posible, incluso que los sueños se hagan realidad.

Audio Español Latino EAC3 5.1 WebDL – Ingles AC3 5.1 WebDL

Ficha técnica

Video trailer de la película

Enlaces de descarga

Rip de Bluray

Descargar La invención de Hugo Cabret (2011) 4K UHD SDR WEB Latino




Aportes de DPeliculasHDmega la pass es:dpeliculashdmega.org Aportes de CinemaniaHD la pass es:cinemaniahdd.com
Guardado en : 4K UHD , Aventura , Drama , Familia

Películas relacionadas

descargar La invención de Hugo Cabret (2011) 4K UHD SDR WEB Latino WEBDL 1080p gratis, La invención de Hugo Cabret (2011) 4K UHD SDR WEB Latino WEBDL mega 1 link, La invención de Hugo Cabret (2011) 4K UHD SDR WEB Latino WEBDL pelicula completa, descargar La invención de Hugo Cabret (2011) 4K UHD SDR WEB Latino WEBDL gratis en mega.

La invención de Hugo Cabret (2011) 4K UHD SDR WEB Latino pelicula full hd, La invención de Hugo Cabret (2011) 4K UHD SDR WEB Latino mega latino, La invención de Hugo Cabret (2011) 4K UHD SDR WEB Latino 4k latino, La invención de Hugo Cabret (2011) 4K UHD SDR WEB Latino pelicula completa, La invención de Hugo Cabret (2011) 4K UHD SDR WEB Latino descargar gratis, descargar La invención de Hugo Cabret (2011) 4K UHD SDR WEB Latino pelicula latino, La invención de Hugo Cabret (2011) 4K UHD SDR WEB Latino 1 link mega, La invención de Hugo Cabret (2011) 4K UHD SDR WEB Latino 1 link google drive, La invención de Hugo Cabret (2011) 4K UHD SDR WEB Latino hd 1080p latino.
Comentarios 2
  • Black71 - 29 julio, 2020

    Saludos

    Gracias por todas las peliculas que comparten, pero me gustaria revisen el acceso a los enlaces PUBLICOS ya que al dar click abre la pagina para enlaces PRIVADOS donde se debe colocar USUARIO/CONTRASEÑA y obviamente no deseamos acceder por esa via

    Gracias de antemano

    • Dracarys - 29 julio, 2020

      hola. eso ya fue arreglado…