×

¿Problemas para descargar con Mozilla, EDGE? Deshabilita la opción "Abrir vinculos en una pestaña nueva" tal como lo muestra ésta imagen.

La invención de Hugo Cabret (2011) REMUX 1080p Latino

503 vistas

Información de La invención de Hugo Cabret (2011) REMUX 1080p Latino

Datos de la película

  • Calidad: Full 1080p
  • Audio: Español Latino AC3 5.1 BLURAY - Ingles DTS-HD Master 7.1 BLURAY
  • Subtitulos: Español Latino PGS - Ingles PGS
  • Resolución: 1920x1080p
  • Formato: MKV
  • Codec: H.264
  • Encoder: CinefiloCool
  • Mediainfo: Clic para Mostrar Datos Ver
  • La invención de Hugo (2011) REMUX 1080p Latino-CMHDD.mkv
    Format                      : Matroska
    Format version              : Version 4
    File size                   : 29.5 GiB
    Duration                    : 2 h 6 min
    Overall bit rate mode       : Variable
    Overall bit rate            : 33.5 Mb/s
    Movie name                  : Hugo (2011) CinemaniaHDD.Net
    Encoded date                : UTC 2020-07-29 05:57:22
    Writing application         : mkvmerge v46.0.0 ('No Deeper Escape') 64-bit
    Writing library             : libebml v1.3.10 + libmatroska v1.5.2
    Attachments                 : CINEMANIAHD.png

    Video
    ID                          : 1
    Format                      : AVC
    Format/Info                 : Advanced Video Codec
    Format profile              : High@L4.1
    Format settings             : CABAC / 4 Ref Frames
    Format settings, CABAC      : Yes
    Format settings, Reference  : 4 frames
    Codec ID                    : V_MPEG4/ISO/AVC
    Duration                    : 2 h 6 min
    Bit rate mode               : Variable
    Bit rate                    : 27.9 Mb/s
    Maximum bit rate            : 35.1 Mb/s
    Width                       : 1 920 pixels
    Height                      : 1 080 pixels
    Display aspect ratio        : 16:9
    Frame rate mode             : Constant
    Frame rate                  : 23.976 (24000/1001) FPS
    Color space                 : YUV
    Chroma subsampling          : 4:2:0
    Bit depth                   : 8 bits
    Scan type                   : Progressive
    Bits/(Pixel*Frame)          : 0.562
    Stream size                 : 24.6 GiB (83%)
    Title                       : REMUX 1080p [CinemaniaHDD]
    Language                    : English
    Default                     : Yes
    Forced                      : No

    Audio #1
    ID                          : 2
    Format                      : AC-3
    Format/Info                 : Audio Coding 3
    Commercial name             : Dolby Digital
    Codec ID                    : A_AC3
    Duration                    : 2 h 6 min
    Bit rate mode               : Constant
    Bit rate                    : 640 kb/s
    Channel(s)                  : 6 channels
    Channel layout              : L R C LFE Ls Rs
    Sampling rate               : 48.0 kHz
    Frame rate                  : 31.250 FPS (1536 SPF)
    Compression mode            : Lossy
    Stream size                 : 578 MiB (2%)
    Title                       : Español Latino [CinemaniaHDD]
    Language                    : Spanish
    Service kind                : Complete Main
    Default                     : Yes
    Forced                      : No

    Audio #2
    ID                          : 3
    Format                      : DTS XLL
    Format/Info                 : Digital Theater Systems
    Commercial name             : DTS-HD Master Audio
    Codec ID                    : A_DTS
    Duration                    : 2 h 6 min
    Bit rate mode               : Variable
    Bit rate                    : 4 894 kb/s
    Channel(s)                  : 8 channels
    Channel layout              : C L R LFE Lb Rb Lss Rss
    Sampling rate               : 48.0 kHz
    Frame rate                  : 93.750 FPS (512 SPF)
    Bit depth                   : 24 bits
    Compression mode            : Lossless
    Stream size                 : 4.32 GiB (15%)
    Title                       : Ingles [CinemaniaHDD]
    Language                    : English
    Default                     : No
    Forced                      : No

    Text #1
    ID                          : 4
    Format                      : PGS
    Muxing mode                 : zlib
    Codec ID                    : S_HDMV/PGS
    Codec ID/Info               : Picture based subtitle format used on BDs/HD-DVDs
    Duration                    : 1 h 57 min
    Bit rate                    : 26.8 kb/s
    Count of elements           : 1878
    Stream size                 : 22.6 MiB (0%)
    Title                       : Español-PGS [CinemaniaHDD]
    Language                    : Spanish
    Default                     : No
    Forced                      : No

    Text #2
    ID                          : 5
    Format                      : PGS
    Muxing mode                 : zlib
    Codec ID                    : S_HDMV/PGS
    Codec ID/Info               : Picture based subtitle format used on BDs/HD-DVDs
    Duration                    : 1 h 57 min
    Bit rate                    : 29.8 kb/s
    Count of elements           : 1948
    Stream size                 : 25.0 MiB (0%)
    Title                       : Ingles-PGS [CinemaniaHDD]
    Language                    : English
    Default                     : No
    Forced                      : No

    Text #3
    ID                          : 6
    Format                      : UTF-8
    Codec ID                    : S_TEXT/UTF8
    Codec ID/Info               : UTF-8 Plain Text
    Duration                    : 1 h 8 min
    Bit rate                    : 0 b/s
    Count of elements           : 3
    Stream size                 : 61.0 Bytes (0%)
    Title                       : Forzados-SRT [CinemaniaHDD]
    Language                    : Spanish
    Default                     : Yes
    Forced                      : No

    Text #4
    ID                          : 7
    Format                      : UTF-8
    Codec ID                    : S_TEXT/UTF8
    Codec ID/Info               : UTF-8 Plain Text
    Duration                    : 1 h 57 min
    Bit rate                    : 32 b/s
    Count of elements           : 939
    Stream size                 : 28.4 KiB (0%)
    Title                       : Español-SRT [CinemaniaHDD]
    Language                    : Spanish
    Default                     : No
    Forced                      : No

    Menu
    00:00:00.000                : en:Chapter 1
    00:09:35.533                : en:Chapter 2
    00:17:20.665                : en:Chapter 3
    00:23:32.911                : en:Chapter 4
    00:30:34.541                : en:Chapter 5
    00:38:26.262                : en:Chapter 6
    00:47:36.270                : en:Chapter 7
    00:55:37.543                : en:Chapter 8
    01:03:43.695                : en:Chapter 9
    01:12:46.862                : en:Chapter 10
    01:19:59.169                : en:Chapter 11
    01:27:10.100                : en:Chapter 12
    01:33:03.495                : en:Chapter 13
    01:42:41.280                : en:Chapter 14
    01:53:47.779                : en:Chapter 15
    01:59:58.441                : en:Chapter 16

  • Peso: 29.5 GiB

Sinopsis

Descargar La invención de Hugo Cabret (2011) REMUX 1080p Latino. ‘La invención de Hugo’ cuenta la historia de Hugo Cabret (Asa Butterflied, ‘El niño con el pijama a rayas’), un niño huérfano que vive oculto en la estación de tren de París, en el año 1930. Hijo de un relojero, y habiendo heredado su habilidad con la precisión para las máquinas, intentará reconstruir un autómata que dejó incompleto su progenitor. Lo hará acompañado de una excéntrica niña, Isabelle (Chloë Grace Moretz, ‘Kick Ass. Listos para machacar’) y de un viejo juguetero (Ben Kingsley, ‘La lista de Schlinder’), que no es otro que George Méliès. A partir de el momento que se encuentren, se internarán juntos en un mundo inesperado repleto de fantasías en el que cada uno encontrará sus propias respuestas a los enigmas tanto terrenales como de su imaginación. En la era de los inventos, de las máquinas y de la ciencia ficción, todo es posible, incluso que los sueños se hagan realidad.

Ficha técnica

Video trailer de la película

Enlaces de descarga

Rip de Bluray

Descargar La invención de Hugo Cabret (2011) REMUX 1080p Latino




Aportes de DPeliculasHDmega la pass es:dpeliculashdmega.org Aportes de CinemaniaHD la pass es:cinemaniahdd.com
Guardado en : Aventura , Drama , Familia , Remux

Películas relacionadas

descargar La invención de Hugo Cabret (2011) REMUX 1080p Latino Full 1080p 1080p gratis, La invención de Hugo Cabret (2011) REMUX 1080p Latino Full 1080p mega 1 link, La invención de Hugo Cabret (2011) REMUX 1080p Latino Full 1080p pelicula completa, descargar La invención de Hugo Cabret (2011) REMUX 1080p Latino Full 1080p gratis en mega.

La invención de Hugo Cabret (2011) REMUX 1080p Latino pelicula full hd, La invención de Hugo Cabret (2011) REMUX 1080p Latino mega latino, La invención de Hugo Cabret (2011) REMUX 1080p Latino 4k latino, La invención de Hugo Cabret (2011) REMUX 1080p Latino pelicula completa, La invención de Hugo Cabret (2011) REMUX 1080p Latino descargar gratis, descargar La invención de Hugo Cabret (2011) REMUX 1080p Latino pelicula latino, La invención de Hugo Cabret (2011) REMUX 1080p Latino 1 link mega, La invención de Hugo Cabret (2011) REMUX 1080p Latino 1 link google drive, La invención de Hugo Cabret (2011) REMUX 1080p Latino hd 1080p latino.
Comentarios 0