Huge in France (2019) Temporada 1 NF WEB-DL 1080p Latino

220 vistas
1 estrella2 estrellas3 estrellas4 estrellas5 estrellas (Ninguna valoración todavía)
Cargando…

Información de Huge in France (2019) Temporada 1 NF WEB-DL 1080p Latino

Datos de la película

  • Calidad:
  • Audio: Español Latino AC3 5.1 Netflix - Ingles AC3 5.1 Netflix
  • Subtitulos: Español Latino SRT- FORZADOS SRT
  • Resolución: 1920x1080
  • Formato: MKV
  • Codec: H.264
  • Encoder: cinemaniahdd
  • Mediainfo: Clic para Mostrar Datos Ver
  • Huge in France Anónimo otra vez S01E02 NF WEB-DL 1080p Latino.mkv
    Format                      : Matroska
    Format version              : Version 4
    File size                   : 1.20 GiB
    Duration                    : 31 min 12 s
    Overall bit rate mode       : Variable
    Overall bit rate            : 5 485 kb/s
    Movie name                  : CinemaniaHDD.Net
    Encoded date                : UTC 2019-04-12 15:46:17 / UTC 2019-04-11 14:34:57
    Writing application         : mkvmerge v11.0.0 ('Alive') 64bit
    Writing library             : libebml v1.3.4 + libmatroska v1.4.5 / Lavf58.0.0

    Video
    ID                          : 1
    Format                      : AVC
    Format/Info                 : Advanced Video Codec
    Format profile              : [email protected]
    Format settings             : CABAC / 3 Ref Frames
    Format settings, CABAC      : Yes
    Format settings, ReFrames   : 3 frames
    Codec ID                    : V_MPEG4/ISO/AVC
    Duration                    : 31 min 12 s
    Bit rate mode               : Variable
    Bit rate                    : 4 607 kb/s
    Nominal bit rate            : 4 870 kb/s
    Maximum bit rate            : 7 305 kb/s
    Width                       : 1 920 pixels
    Height                      : 1 080 pixels
    Display aspect ratio        : 16:9
    Frame rate mode             : Constant
    Frame rate                  : 23.976 (24000/1001) FPS
    Color space                 : YUV
    Chroma subsampling          : 4:2:0
    Bit depth                   : 8 bits
    Scan type                   : Progressive
    Bits/(Pixel*Frame)          : 0.093
    Stream size                 : 1.00 GiB (84%)
    Title                       : CinemaniaHDD
    Writing library             : x264 core 148 r2715 7e75228
    Encoding settings           : cabac=1 / ref=3 / deblock=1:0:0 / analyse=0x1:0x111 / me=umh / subme=10 / psy=1 / psy_rd=1.00:0.00 / mixed_ref=1 / me_range=24 / chroma_me=1 / trellis=2 / 8x8dct=0 / cqm=0 / deadzone=21,11 / fast_pskip=1 / chroma_qp_offset=-2 / threads=8 / lookahead_threads=1 / sliced_threads=0 / nr=0 / decimate=1 / interlaced=0 / bluray_compat=0 / stitchable=1 / constrained_intra=0 / bframes=2 / b_pyramid=0 / b_adapt=2 / b_bias=0 / direct=3 / weightb=1 / open_gop=0 / weightp=2 / keyint=48 / keyint_min=25 / scenecut=0 / intra_refresh=0 / rc_lookahead=48 / rc=2pass / mbtree=1 / bitrate=4870 / ratetol=1.0 / qcomp=0.50 / qpmin=6 / qpmax=51 / qpstep=4 / cplxblur=20.0 / qblur=0.5 / vbv_maxrate=7305 / vbv_bufsize=9740 / nal_hrd=vbr / filler=0 / ip_ratio=1.40 / aq=1:1.00
    Default                     : Yes
    Forced                      : No
    Statistics Tags Issue       : mkvmerge v11.0.0 ('Alive') 64bit 2019-04-12 15:46:17 / mkvmerge v11.0.0 ('Alive') 64bit 2019-04-12 15:46:17 / UTC 2019-04-11 14:34:57
    FromStats_BitRate           : 4715053
    FromStats_Duration          : 00:31:12.121000000
    FromStats_FrameCount        : 44886
    FromStats_StreamSize        : 1103393851

    Audio #1
    ID                          : 2
    Format                      : AC-3
    Format/Info                 : Audio Coding 3
    Commercial name             : Dolby Digital
    Codec ID                    : A_AC3
    Duration                    : 31 min 12 s
    Bit rate mode               : Constant
    Bit rate                    : 384 kb/s
    Channel(s)                  : 6 channels
    Channel layout              : L R C LFE Ls Rs
    Sampling rate               : 48.0 kHz
    Frame rate                  : 31.250 FPS (1536 SPF)
    Bit depth                   : 16 bits
    Compression mode            : Lossy
    Stream size                 : 85.7 MiB (7%)
    Title                       : Español latino [CinemaniaHDD]
    Language                    : Spanish
    Service kind                : Complete Main
    Default                     : Yes
    Forced                      : No
    Encoded date                : UTC 2019-04-11 14:35:01
    Statistics Tags Issue       : mkvmerge v11.0.0 ('Alive') 64bit 2019-04-12 15:46:17 / mkvmerge v11.0.0 ('Alive') 64bit 2019-04-12 15:46:17 / UTC 2019-04-11 14:34:57
    FromStats_BitRate           : 384000
    FromStats_Duration          : 00:31:12.416000000
    FromStats_FrameCount        : 58513
    FromStats_StreamSize        : 89875968

    Audio #2
    ID                          : 3
    Format                      : AC-3
    Format/Info                 : Audio Coding 3
    Commercial name             : Dolby Digital
    Codec ID                    : A_AC3
    Duration                    : 31 min 12 s
    Bit rate mode               : Constant
    Bit rate                    : 384 kb/s
    Channel(s)                  : 6 channels
    Channel layout              : L R C LFE Ls Rs
    Sampling rate               : 48.0 kHz
    Frame rate                  : 31.250 FPS (1536 SPF)
    Bit depth                   : 16 bits
    Compression mode            : Lossy
    Stream size                 : 85.7 MiB (7%)
    Title                       : Inglés [CinemaniaHDD]
    Language                    : English
    Service kind                : Complete Main
    Default                     : No
    Forced                      : No
    Encoded date                : UTC 2019-04-11 14:34:57
    Statistics Tags Issue       : mkvmerge v11.0.0 ('Alive') 64bit 2019-04-12 15:46:17 / mkvmerge v11.0.0 ('Alive') 64bit 2019-04-12 15:46:17 / UTC 2019-04-11 14:34:57
    FromStats_BitRate           : 384000
    FromStats_Duration          : 00:31:12.416000000
    FromStats_FrameCount        : 58513
    FromStats_StreamSize        : 89875968

    Text #1
    ID                          : 4
    Format                      : UTF-8
    Codec ID                    : S_TEXT/UTF8
    Codec ID/Info               : UTF-8 Plain Text
    Title                       : Forzados [CinemaniaHDD]
    Language                    : Spanish
    Default                     : Yes
    Forced                      : Yes
    Statistics Tags Issue       : mkvmerge v11.0.0 ('Alive') 64bit 2019-04-12 15:46:17 / mkvmerge v11.0.0 ('Alive') 64bit 2019-04-12 15:46:17 / UTC 2019-04-11 14:34:57
    FromStats_BitRate           : 0
    FromStats_Duration          : 00:30:42.757000000
    FromStats_FrameCount        : 4
    FromStats_StreamSize        : 82

    Text #2
    ID                          : 5
    Format                      : UTF-8
    Codec ID                    : S_TEXT/UTF8
    Codec ID/Info               : UTF-8 Plain Text
    Title                       : Español latino [CinemaniaHDD]
    Language                    : Spanish
    Default                     : No
    Forced                      : No
    Statistics Tags Issue       : mkvmerge v11.0.0 ('Alive') 64bit 2019-04-12 15:46:17 / mkvmerge v11.0.0 ('Alive') 64bit 2019-04-12 15:46:17 / UTC 2019-04-11 14:34:57
    FromStats_BitRate           : 73
    FromStats_Duration          : 00:30:42.757000000
    FromStats_FrameCount        : 624
    FromStats_StreamSize        : 17009

  • Peso: 1 GiB Aprox. Total 7.29 GiB

Sinopsis

El cómico Gad Elmaleh se muda a Los Ángeles para retomar la relación con su hijo y deberá aprender a vivir sin las ventajas a las que estaba acostumbrado por ser famoso.

Ficha técnica

  • Titulo original: Huge en France
  • Fecha de lanzamiento: 12-04-2019 (FR)
  • Género: Comedia
  • Puntuación: 0.0 0 votos
  • Duración:
    0h 30m

Video trailer de la película

Enlaces de descarga

Rip de Bluray

Descargar Huge in France (2019) Temporada 1 NF WEB-DL 1080p Latino




Aportes de DPeliculasHDmega la pass es:dpeliculashdmega.org Aportes de CinemaniaHD la pass es:cinemaniahdd.com
Guardado en : Comedia

Películas relacionadas

  • Arizona (2018) 1080p Latino

    2018
    Arizona (2018) 1080p Latino

    5.0 1h 25m 2018

    Ambientada en medio de la crisis de la vivienda de 2009, esta oscura y cómica historia sigue a Cassie...

    Director: Mara Herdmann

    Género: Comedia

    Actores: Vivian Nesbitt

  • Green Book (2018) 1080p Latino

    2018
    Green Book (2018) 1080p Latino

    4.5 2h 10m 2018

    Descargar Green Book (2018) 1080p Latino. Años 60. Cuando Tony Lip (Viggo Mortensen), un rudo italoamericano...

    Director: Peter Farrelly

    Género: Comedia

    Actores: William E. Harris

Comentarios 0