×

¿Problemas para descargar con Mozilla, EDGE? Deshabilita la opción "Abrir vinculos en una pestaña nueva" tal como lo muestra ésta imagen.

Huevitos Congelados (2022) AMZN WEB-DL 1080p Latino

76 vistas

Información de Huevitos Congelados (2022) AMZN WEB-DL 1080p Latino

Datos de la película

  • Calidad: 1080p
  • Audio: Español Latino AC3 2.0
  • Subtitulos: Español Latino SRT
  • Resolución: 1920x1080
  • Formato: MKV
  • Codec: H.264
  • Encoder: cinemaniahdd
  • Mediainfo: Clic para Mostrar Datos Ver
  • Huevitos Congelados (2022) AMZN WEB-DL 1080p Latino [CNMNHDD].mkv
    Format                      : Matroska
    Format version              : Version 4
    File size                   : 6.00 GiB
    Duration                    : 1 h 31 min
    Overall bit rate            : 9 355 kb/s
    Movie name                  : Huevitos Congelados (2022) [1080p] - CinemaniaHDD.Net
    Encoded date                : UTC 2022-12-09 02:32:23
    Writing application         : mkvmerge v56.1.0 ('My Friend') 64-bit
    Writing library             : libebml v1.4.2 + libmatroska v1.6.4

    Video
    ID                          : 1
    Format                      : AVC
    Format/Info                 : Advanced Video Codec
    Format profile              : High@L4
    Format settings             : CABAC / 4 Ref Frames
    Format settings, CABAC      : Yes
    Format settings, Reference  : 4 frames
    Codec ID                    : V_MPEG4/ISO/AVC
    Duration                    : 1 h 31 min
    Bit rate mode               : Constant
    Bit rate                    : 8 744 kb/s
    Nominal bit rate            : 10 000 kb/s
    Width                       : 1 920 pixels
    Height                      : 1 080 pixels
    Display aspect ratio        : 16:9
    Frame rate mode             : Constant
    Frame rate                  : 24.000 FPS
    Color space                 : YUV
    Chroma subsampling          : 4:2:0
    Bit depth                   : 8 bits
    Scan type                   : Progressive
    Bits/(Pixel*Frame)          : 0.176
    Stream size                 : 5.61 GiB (93%)
    Title                       : CinemaniaHDD
    Default                     : Yes
    Forced                      : No
    Color range                 : Limited
    Color primaries             : BT.709
    Transfer characteristics    : BT.709
    Matrix coefficients         : BT.709

    Audio #1
    ID                          : 2
    Format                      : AC-3
    Format/Info                 : Audio Coding 3
    Commercial name             : Dolby Digital
    Codec ID                    : A_AC3
    Duration                    : 1 h 31 min
    Bit rate mode               : Constant
    Bit rate                    : 384 kb/s
    Channel(s)                  : 2 channels
    Channel layout              : L R
    Sampling rate               : 48.0 kHz
    Frame rate                  : 31.250 FPS (1536 SPF)
    Compression mode            : Lossy
    Stream size                 : 252 MiB (4%)
    Title                       : Español latino [CinemaniaHDD]
    Language                    : Spanish
    Service kind                : Complete Main
    Default                     : Yes
    Forced                      : No

    Audio #2
    ID                          : 3
    Format                      : E-AC-3
    Format/Info                 : Enhanced AC-3
    Commercial name             : Dolby Digital Plus
    Codec ID                    : A_EAC3
    Duration                    : 1 h 31 min
    Bit rate mode               : Constant
    Bit rate                    : 224 kb/s
    Channel(s)                  : 2 channels
    Channel layout              : L R
    Sampling rate               : 48.0 kHz
    Frame rate                  : 31.250 FPS (1536 SPF)
    Compression mode            : Lossy
    Stream size                 : 147 MiB (2%)
    Title                       : Español latino / E-AC3 [CinemaniaHDD]
    Language                    : Spanish
    Service kind                : Complete Main
    Default                     : No
    Forced                      : No

    Text
    ID                          : 4
    Format                      : UTF-8
    Codec ID                    : S_TEXT/UTF8
    Codec ID/Info               : UTF-8 Plain Text
    Duration                    : 1 h 30 min
    Bit rate                    : 60 b/s
    Count of elements           : 1364
    Stream size                 : 39.7 KiB (0%)
    Title                       : Español latino [CinemaniaHDD]
    Language                    : Spanish
    Default                     : No
    Forced                      : No

     

  • Peso: 6.00 GiB

Sinopsis

Toto y su familia tendrán que viajar a donde nunca gallos y gallinas habían ido: al Polo Sur; para ayudar a un oso polar y a unos simpáticos pingüinos a regresar a su hogar. Para lograrlo tendrán que enfrentar una serie de obstáculos.

Ficha técnica

Video trailer de la película

Enlaces de descarga

Rip de Bluray

Descargar Huevitos Congelados (2022) AMZN WEB-DL 1080p Latino




Aportes de DPeliculasHDmega la pass es:dpeliculashdmega.org Aportes de CinemaniaHD la pass es:cinemaniahdd.com
Guardado en : Animación , Aventura , Comedia

Películas relacionadas

  • Mi amigo el dragón (2016) Full HD 1080p Latino

    Mi amigo el dragón (2016) Full HD 1080p Latino

    2016
    Mi amigo el dragón (2016) Full HD 1080p Latino

    1h 43m 2016

    Descargar Mi amigo el dragón (2016) Full HD 1080p Latino. Durante años el Sr. Meacham, un viejo tallador...

    Director: Joe Nolan

    Género: Aventura

    Actores: William J. Rawbone

  • Mi amigo el dragón (2016) REMUX 1080p Latino

    Mi amigo el dragón (2016) REMUX 1080p Latino

    2016
    Mi amigo el dragón (2016) REMUX 1080p Latino

    1h 43m 2016

    Descargar Mi amigo el dragón (2016) REMUX 1080p Latino. Durante años el Sr. Meacham, un viejo tallador...

    Director: Joe Nolan

    Género: Aventura

    Actores: William J. Rawbone

descargar Huevitos Congelados (2022) AMZN WEB-DL 1080p Latino 1080p 1080p gratis, Huevitos Congelados (2022) AMZN WEB-DL 1080p Latino 1080p mega 1 link, Huevitos Congelados (2022) AMZN WEB-DL 1080p Latino 1080p pelicula completa, descargar Huevitos Congelados (2022) AMZN WEB-DL 1080p Latino 1080p gratis en mega.

Huevitos Congelados (2022) AMZN WEB-DL 1080p Latino pelicula full hd, Huevitos Congelados (2022) AMZN WEB-DL 1080p Latino mega latino, Huevitos Congelados (2022) AMZN WEB-DL 1080p Latino 4k latino, Huevitos Congelados (2022) AMZN WEB-DL 1080p Latino pelicula completa, Huevitos Congelados (2022) AMZN WEB-DL 1080p Latino descargar gratis, descargar Huevitos Congelados (2022) AMZN WEB-DL 1080p Latino pelicula latino, Huevitos Congelados (2022) AMZN WEB-DL 1080p Latino 1 link mega, Huevitos Congelados (2022) AMZN WEB-DL 1080p Latino 1 link google drive, Huevitos Congelados (2022) AMZN WEB-DL 1080p Latino hd 1080p latino.
Comentarios 0