×

¿Problemas para descargar con Mozilla, EDGE? Deshabilita la opción "Abrir vinculos en una pestaña nueva" tal como lo muestra ésta imagen.

Huesera (2022) REMUX 1080p Latino

74 vistas

Información de Huesera (2022) REMUX 1080p Latino

Datos de la película

  • Calidad: Full 1080p
  • Audio: Se especifica abajo de la Sinopsis
  • Subtitulos: No
  • Resolución: 1920x1080p
  • Formato: MKV
  • Codec: H.264
  • Encoder: Melkor
  • Mediainfo: Clic para Mostrar Datos Ver
  • Huesera (2022) REMUX 1080p Latino.mkv
    Format                      : Matroska
    Format version              : Version 4
    File size                   : 22.6 GiB
    Duration                    : 1 h 37 min
    Overall bit rate mode       : Variable
    Overall bit rate            : 33.3 Mb/s
    Movie name                  : Huesera (2022) CinemaniaHDD.Net
    Encoded date                : UTC 2024-04-10 04:49:35
    Writing application         : mkvmerge v56.1.0 ('My Friend') 64-bit
    Writing library             : libebml v1.4.2 + libmatroska v1.6.4
    Attachments                 : CINEMANIAHD.png

    Video
    ID                          : 1
    Format                      : AVC
    Format/Info                 : Advanced Video Codec
    Format profile              : High@L4.1
    Format settings             : CABAC / 4 Ref Frames
    Format settings, CABAC      : Yes
    Format settings, Reference  : 4 frames
    Format settings, GOP        : M=3, N=24
    Codec ID                    : V_MPEG4/ISO/AVC
    Duration                    : 1 h 37 min
    Bit rate mode               : Variable
    Bit rate                    : 29.9 Mb/s
    Maximum bit rate            : 35.0 Mb/s
    Width                       : 1 920 pixels
    Height                      : 1 080 pixels
    Display aspect ratio        : 16:9
    Frame rate mode             : Constant
    Frame rate                  : 23.976 (24000/1001) FPS
    Standard                    : NTSC
    Color space                 : YUV
    Chroma subsampling          : 4:2:0
    Bit depth                   : 8 bits
    Scan type                   : Progressive
    Bits/(Pixel*Frame)          : 0.601
    Stream size                 : 20.3 GiB (90%)
    Title                       : REMUX HD1080p [CinemaniaHDD]
    Default                     : Yes
    Forced                      : Yes
    Color range                 : Limited
    Color primaries             : BT.709
    Transfer characteristics    : BT.709
    Matrix coefficients         : BT.709

    Audio #1
    ID                          : 2
    Format                      : DTS
    Format/Info                 : Digital Theater Systems
    Codec ID                    : A_DTS
    Duration                    : 1 h 37 min
    Bit rate mode               : Constant
    Bit rate                    : 1 509 kb/s
    Channel(s)                  : 6 channels
    Channel layout              : C L R Ls Rs LFE
    Sampling rate               : 48.0 kHz
    Frame rate                  : 93.750 FPS (512 SPF)
    Bit depth                   : 24 bits
    Compression mode            : Lossy
    Stream size                 : 1.02 GiB (5%)
    Title                       : Español Latino [CinemaniaHDD]
    Language                    : Spanish
    Default                     : Yes
    Forced                      : Yes

    Audio #2
    ID                          : 3
    Format                      : DTS XLL
    Format/Info                 : Digital Theater Systems
    Commercial name             : DTS-HD Master Audio
    Codec ID                    : A_DTS
    Duration                    : 1 h 37 min
    Bit rate mode               : Variable
    Bit rate                    : 1 878 kb/s
    Channel(s)                  : 6 channels
    Channel layout              : C L R Ls Rs LFE
    Sampling rate               : 48.0 kHz
    Frame rate                  : 93.750 FPS (512 SPF)
    Bit depth                   : 16 bits
    Compression mode            : Lossless
    Stream size                 : 1.28 GiB (6%)
    Title                       : Español Latino DTS-HD [CinemaniaHDD]
    Language                    : Spanish
    Default                     : No
    Forced                      : No

    Text
    ID                          : 4
    Format                      : PGS
    Muxing mode                 : zlib
    Codec ID                    : S_HDMV/PGS
    Codec ID/Info               : Picture based subtitle format used on BDs/HD-DVDs
    Duration                    : 1 h 28 min
    Bit rate                    : 18.0 kb/s
    Count of elements           : 1222
    Stream size                 : 11.4 MiB (0%)
    Title                       : Ingles-PGS [CinemaniaHDD]
    Language                    : English
    Default                     : No
    Forced                      : No

  • Peso: 22.6 GiB

Sinopsis

Descargar Huesera (2022) REMUX 1080p Latino. Cuenta la historia de Valeria, una mujer que lleva tiempo intentando tener un hijo. De repente, la misma noche en la que por fin se confirma su embarazo le visita una extraña presencia. A partir de ese momento, la monstruosa criatura la persigue manteniendo en peligro su embarazo, su pareja y la vida de su futuro bebé.

Español Latino DTS-HD & Core DTS 5.1 BD

Ficha técnica

Video trailer de la película

Enlaces de descarga

Rip de Bluray

Descargar Huesera (2022) REMUX 1080p Latino




Aportes de DPeliculasHDmega la pass es:dpeliculashdmega.org Aportes de CinemaniaHD la pass es:cinemaniahdd.com Aportes recientes:cinemaniahdd.net
Guardado en : Drama , Misterio , Remux , Terror

Películas relacionadas

  • Red de venganza (2023) HD 1080p Latino

    Red de venganza (2023) HD 1080p Latino

    2023
    Red de venganza (2023) HD 1080p Latino

    1h 25m 2023

    Descargar Red de venganza (2023) HD 1080p Latino. Analiza los problemas que surgen entre una madre (Summer...

    Director: Amy Redford

    Género: Drama

    Actores: Summer Phoenix

  • Red de venganza (2023) REMUX 1080p Latino

    Red de venganza (2023) REMUX 1080p Latino

    2023
    Red de venganza (2023) REMUX 1080p Latino

    1h 25m 2023

    Descargar Red de venganza (2023) REMUX 1080p Latino. Analiza los problemas que surgen entre una madre...

    Director: Amy Redford

    Género: Drama

    Actores: Summer Phoenix

  • Recuerdos Mortales (2024) WEB-DL 1080p Latino

    Recuerdos Mortales (2024) WEB-DL 1080p Latino

    2024
    Recuerdos Mortales (2024) WEB-DL 1080p Latino

    1h 52m 2024

    Descargar Recuerdos Mortales (2024) WEB-DL 1080p Latino. Después de someterse a un tratamiento de vanguardia...

    Director: Adam Cooper

    Género: Crimen

    Actores: Tommy Flanagan

descargar Huesera (2022) REMUX 1080p Latino Full 1080p 1080p gratis, Huesera (2022) REMUX 1080p Latino Full 1080p mega 1 link, Huesera (2022) REMUX 1080p Latino Full 1080p pelicula completa, descargar Huesera (2022) REMUX 1080p Latino Full 1080p gratis en mega.

Huesera (2022) REMUX 1080p Latino pelicula full hd, Huesera (2022) REMUX 1080p Latino mega latino, Huesera (2022) REMUX 1080p Latino 4k latino, Huesera (2022) REMUX 1080p Latino pelicula completa, Huesera (2022) REMUX 1080p Latino descargar gratis, descargar Huesera (2022) REMUX 1080p Latino pelicula latino, Huesera (2022) REMUX 1080p Latino 1 link mega, Huesera (2022) REMUX 1080p Latino 1 link google drive, Huesera (2022) REMUX 1080p Latino hd 1080p latino.
Comentarios 0