×

¿Problemas para descargar con Mozilla, EDGE? Deshabilita la opción "Abrir vinculos en una pestaña nueva" tal como lo muestra ésta imagen.

Howard the Duck (1986) REMUX 4K HDR Latino – CMHDD

151 vistas

Información de Howard the Duck (1986) REMUX 4K HDR Latino – CMHDD

Datos de la película

  • Calidad: 4K HDR
  • Audio: Se especifica abajo de la Sinopsis
  • Subtitulos: Español Latino PGS
  • Resolución: 3840x2160p
  • Formato: MKV
  • Codec: HEVC
  • Encoder: Dracarys
  • Mediainfo: Clic para Mostrar Datos Ver
  • Format                      : Matroska
    Format version              : Version 4
    File size                   : 51.1 GiB
    Duration                    : 1 h 50 min
    Overall bit rate mode       : Variable
    Overall bit rate            : 66.2 Mb/s
    Movie name                  : Howard the Duck (1986) REMUX 4K HDR Latino - CMHDD
    Encoded date                : UTC 2021-07-09 02:18:51
    Writing application         : mkvmerge v56.1.0 ('My Friend') 64-bit
    Writing library             : libebml v1.4.2 + libmatroska v1.6.4
    Cover                       : Yes
    Attachments                 : cover.jpg

    Video
    ID                          : 1
    ID in the original source m : 4113 (0x1011)
    Format                      : HEVC
    Format/Info                 : High Efficiency Video Coding
    Format profile              : Main 10@L5.1@High
    HDR format                  : SMPTE ST 2086, HDR10 compatible
    Codec ID                    : V_MPEGH/ISO/HEVC
    Duration                    : 1 h 50 min
    Bit rate                    : 59.7 Mb/s
    Width                       : 3 840 pixels
    Height                      : 2 160 pixels
    Display aspect ratio        : 16:9
    Frame rate mode             : Constant
    Frame rate                  : 23.976 (24000/1001) FPS
    Color space                 : YUV
    Chroma subsampling          : 4:2:0 (Type 2)
    Bit depth                   : 10 bits
    Bits/(Pixel*Frame)          : 0.300
    Stream size                 : 46.1 GiB (90%)
    Default                     : Yes
    Forced                      : No
    Color range                 : Limited
    Color primaries             : BT.2020
    Transfer characteristics    : PQ
    Matrix coefficients         : BT.2020 non-constant
    Mastering display color pri : Display P3
    Mastering display luminance : min: 0.0050 cd/m2, max: 1000 cd/m2
    Maximum Content Light Level : 1000 cd/m2
    Maximum Frame-Average Light : 166 cd/m2
    Original source medium      : Blu-ray

    Audio #1
    ID                          : 2
    ID in the original source m : 4352 (0x1100)
    Format                      : DTS XLL X
    Format/Info                 : Digital Theater Systems
    Commercial name             : DTS-HD Master Audio
    Codec ID                    : A_DTS
    Duration                    : 1 h 50 min
    Bit rate mode               : Variable
    Bit rate                    : 6 266 kb/s
    Channel(s)                  : 8 channels
    Channel(s)_Original         : Object Based
    ChannelLayout_Original      : Object Based
    Sampling rate               : 48.0 kHz
    Frame rate                  : 93.750 FPS (512 SPF)
    Bit depth                   : 24 bits
    Stream size                 : 4.83 GiB (9%)
    Language                    : English
    Default                     : No
    Forced                      : No
    Original source medium      : Blu-ray

    Audio #2
    ID                          : 3
    Format                      : AC-3
    Format/Info                 : Audio Coding 3
    Commercial name             : Dolby Digital
    Codec ID                    : A_AC3
    Duration                    : 1 h 50 min
    Bit rate mode               : Constant
    Bit rate                    : 192 kb/s
    Channel(s)                  : 2 channels
    Channel layout              : L R
    Sampling rate               : 48.0 kHz
    Frame rate                  : 31.250 FPS (1536 SPF)
    Compression mode            : Lossy
    Stream size                 : 152 MiB (0%)
    Language                    : Spanish
    Service kind                : Complete Main
    Default                     : Yes
    Forced                      : No

    Text #1
    ID                          : 4
    ID in the original source m : 4769 (0x12A1)
    Format                      : PGS
    Muxing mode                 : zlib
    Codec ID                    : S_HDMV/PGS
    Codec ID/Info               : Picture based subtitle format used on BDs/HD-DVDs
    Duration                    : 1 h 49 min
    Bit rate                    : 38.1 kb/s
    Count of elements           : 2810
    Stream size                 : 29.7 MiB (0%)
    Language                    : Spanish
    Default                     : No
    Forced                      : No
    Original source medium      : Blu-ray

    Text #2
    ID                          : 5
    ID in the original source m : 4771 (0x12A3)
    Format                      : PGS
    Muxing mode                 : zlib
    Codec ID                    : S_HDMV/PGS
    Codec ID/Info               : Picture based subtitle format used on BDs/HD-DVDs
    Duration                    : 1 h 48 min
    Bit rate                    : 645 b/s
    Count of elements           : 52
    Stream size                 : 514 KiB (0%)
    Language                    : Spanish
    Default                     : Yes
    Forced                      : No
    Original source medium      : Blu-ray

    Menu
    00:00:00.000                : Chapter 01
    00:06:19.670                : Chapter 02
    00:13:57.127                : Chapter 03
    00:20:13.295                : Chapter 04
    00:27:32.025                : Chapter 05
    00:32:09.135                : Chapter 06
    00:37:34.835                : Chapter 07
    00:44:27.831                : Chapter 08
    00:48:24.568                : Chapter 09
    00:55:36.207                : Chapter 10
    01:04:02.421                : Chapter 11
    01:13:03.837                : Chapter 12
    01:19:34.436                : Chapter 13
    01:26:40.612                : Chapter 14
    01:32:55.653                : Chapter 15
    01:37:23.462                : Chapter 16
    01:42:40.988                : Chapter 17
    01:46:07.986                : Chapter 18

  • Peso: 51.1 GiB

Sinopsis

Desde un lejano planeta, y debido a un error de un laboratorio espacial, llega a La Tierra teletransportado un extraño personaje, un pato que dice llamarse Howard. Es acogido en casa de Beberly, una joven que es vocal de un grupo de rock. Cuando el doctor Jenin intenta devolverle a su planeta, la energia diabólica del experimento le atrapa, transformandole en el terrible Señor de las Tinieblas y Howard tendrá que enfrentarse a él.

 

 

Latino: AC3 2.0  –  Ingles: DTS-HD Master Audio 7.1

Ficha técnica

Video trailer de la película

Enlaces de descarga

Rip de Bluray

Descargar Howard the Duck (1986) REMUX 4K HDR Latino – CMHDD


Aportes de DPeliculasHDmega la pass es:dpeliculashdmega.org Aportes de CinemaniaHD la pass es:cinemaniahdd.com

Películas relacionadas

  • DC Liga De Supermascotas (2022) HD 1080p Latino

    DC Liga De Supermascotas (2022) HD 1080p Latino

    2022
    DC Liga De Supermascotas (2022) HD 1080p Latino

    1h 45m 2022

    Descargar DC Liga De Supermascotas (2022) HD 1080p Latino. Krypto el Superperro y Superman son amigos...

    Director: Sam Levine

    Género: Acción

    Actores: Yvette Nicole Brown

  • Rick and Morty (2022) Temporada 6 WEB-DL 1080p Latino

    Rick and Morty (2022) Temporada 6 WEB-DL 1080p Latino

    2013
    Rick and Morty (2022) Temporada 6 WEB-DL 1080p Latino

    0h 22m 2013

    Comedia animada que narra las aventuras de un científico loco Rick Sánchez, que regresa después de...

    Director: Justin Roiland

    Género: Action & Adventure

    Actores: Spencer Grammer

  • Tremors (1990) REMUX 4K HDR Latino – CMHDD

    Tremors (1990) REMUX 4K HDR Latino – CMHDD

    1990
    Tremors (1990) REMUX 4K HDR Latino – CMHDD

    1h 35m 1990

    En Perfección, un pequeño pueblo al borde del desierto de Nevada, algo parece suceder debajo de la...

    Director: Susan Bierbaum

    Género: Acción

    Actores: Victor Wong

descargar Howard the Duck (1986) REMUX 4K HDR Latino – CMHDD 4K HDR 1080p gratis, Howard the Duck (1986) REMUX 4K HDR Latino – CMHDD 4K HDR mega 1 link, Howard the Duck (1986) REMUX 4K HDR Latino – CMHDD 4K HDR pelicula completa, descargar Howard the Duck (1986) REMUX 4K HDR Latino – CMHDD 4K HDR gratis en mega.

Howard the Duck (1986) REMUX 4K HDR Latino – CMHDD pelicula full hd, Howard the Duck (1986) REMUX 4K HDR Latino – CMHDD mega latino, Howard the Duck (1986) REMUX 4K HDR Latino – CMHDD 4k latino, Howard the Duck (1986) REMUX 4K HDR Latino – CMHDD pelicula completa, Howard the Duck (1986) REMUX 4K HDR Latino – CMHDD descargar gratis, descargar Howard the Duck (1986) REMUX 4K HDR Latino – CMHDD pelicula latino, Howard the Duck (1986) REMUX 4K HDR Latino – CMHDD 1 link mega, Howard the Duck (1986) REMUX 4K HDR Latino – CMHDD 1 link google drive, Howard the Duck (1986) REMUX 4K HDR Latino – CMHDD hd 1080p latino.