Howard the Duck (1986) REMUX 1080p Latino – CMHDD

67 vistas
1 estrella2 estrellas3 estrellas4 estrellas5 estrellas (Ninguna valoración todavía)
Cargando...

Información de Howard the Duck (1986) REMUX 1080p Latino – CMHDD

Datos de la película

  • Calidad: Full 1080p
  • Audio: Se especifica abajo de la Sinopsis
  • Subtitulos: Español Latino SRT- FORZADOS SRT
  • Resolución: 1920x1080p
  • Formato: MKV
  • Codec: H.264
  • Encoder: Dracarys
  • Mediainfo: Clic para Mostrar Datos Ver
  • Format                      : Matroska
    Format version              : Version 4
    File size                   : 26.6 GiB
    Duration                    : 1 h 50 min
    Overall bit rate mode       : Variable
    Overall bit rate            : 34.5 Mb/s
    Movie name                  : Howard the Duck (1986) REMUX 1080p Latino - CMHDD
    Encoded date                : UTC 2021-07-25 20:54:03
    Writing application         : mkvmerge v56.1.0 ('My Friend') 64-bit
    Writing library             : libebml v1.4.2 + libmatroska v1.6.4
    Cover                       : Yes
    Attachments                 : cover.jpg

    Video
    ID                          : 1
    ID in the original source m : 4113 (0x1011)
    Format                      : AVC
    Format/Info                 : Advanced Video Codec
    Format profile              : High@L4.1
    Format settings             : CABAC / 4 Ref Frames
    Format settings, CABAC      : Yes
    Format settings, Reference  : 4 frames
    Format settings, GOP        : M=4, N=24
    Codec ID                    : V_MPEG4/ISO/AVC
    Duration                    : 1 h 50 min
    Bit rate mode               : Variable
    Bit rate                    : 32.6 Mb/s
    Maximum bit rate            : 38.0 Mb/s
    Width                       : 1 920 pixels
    Height                      : 1 080 pixels
    Display aspect ratio        : 16:9
    Frame rate mode             : Constant
    Frame rate                  : 23.976 (24000/1001) FPS
    Standard                    : NTSC
    Color space                 : YUV
    Chroma subsampling          : 4:2:0
    Bit depth                   : 8 bits
    Scan type                   : Progressive
    Bits/(Pixel*Frame)          : 0.656
    Stream size                 : 25.2 GiB (95%)
    Default                     : Yes
    Forced                      : No
    Color range                 : Limited
    Color primaries             : BT.709
    Transfer characteristics    : BT.709
    Matrix coefficients         : BT.709
    Original source medium      : Blu-ray

    Audio #1
    ID                          : 2
    Format                      : E-AC-3
    Format/Info                 : Enhanced AC-3
    Commercial name             : Dolby Digital Plus
    Codec ID                    : A_EAC3
    Duration                    : 1 h 50 min
    Bit rate mode               : Constant
    Bit rate                    : 224 kb/s
    Channel(s)                  : 2 channels
    Channel layout              : L R
    Sampling rate               : 48.0 kHz
    Frame rate                  : 31.250 FPS (1536 SPF)
    Compression mode            : Lossy
    Stream size                 : 177 MiB (1%)
    Language                    : Spanish
    Service kind                : Complete Main
    Default                     : Yes
    Forced                      : No

    Audio #2
    ID                          : 3
    ID in the original source m : 4352 (0x1100)
    Format                      : DTS XLL
    Format/Info                 : Digital Theater Systems
    Commercial name             : DTS-HD Master Audio
    Codec ID                    : A_DTS
    Duration                    : 1 h 50 min
    Bit rate mode               : Variable
    Bit rate                    : 1 629 kb/s
    Channel(s)                  : 2 channels
    Channel layout              : L R
    Sampling rate               : 48.0 kHz
    Frame rate                  : 93.750 FPS (512 SPF)
    Bit depth                   : 16 bits
    Compression mode            : Lossless
    Stream size                 : 1.26 GiB (5%)
    Language                    : German
    Default                     : No
    Forced                      : No
    Original source medium      : Blu-ray

    Text #1
    ID                          : 4
    Format                      : UTF-8
    Codec ID                    : S_TEXT/UTF8
    Codec ID/Info               : UTF-8 Plain Text
    Duration                    : 1 h 38 min
    Bit rate                    : 1 b/s
    Count of elements           : 47
    Stream size                 : 1.24 KiB (0%)
    Language                    : Spanish
    Default                     : Yes
    Forced                      : No

    Text #2
    ID                          : 5
    Format                      : UTF-8
    Codec ID                    : S_TEXT/UTF8
    Codec ID/Info               : UTF-8 Plain Text
    Duration                    : 1 h 44 min
    Bit rate                    : 63 b/s
    Count of elements           : 1540
    Stream size                 : 49.1 KiB (0%)
    Language                    : Spanish
    Default                     : No
    Forced                      : No

    Menu
    00:00:00.000                : Chapter 01
    00:06:11.704                : Chapter 02
    00:13:37.691                : Chapter 03
    00:20:13.295                : Chapter 04
    00:27:32.025                : Chapter 05
    00:32:45.755                : Chapter 06
    00:40:44.984                : Chapter 07
    00:48:24.568                : Chapter 08
    00:53:58.026                : Chapter 09
    00:59:03.456                : Chapter 10
    01:04:02.421                : Chapter 11
    01:13:03.837                : Chapter 12
    01:17:39.071                : Chapter 13
    01:21:33.722                : Chapter 14
    01:26:40.612                : Chapter 15
    01:34:23.115                : Chapter 16
    01:42:40.988                : Chapter 17
    01:45:04.423                : Chapter 18

  • Peso:

Sinopsis

Desde un lejano planeta, y debido a un error de un laboratorio espacial, llega a La Tierra teletransportado un extraño personaje, un pato que dice llamarse Howard. Es acogido en casa de Beberly, una joven que es vocal de un grupo de rock. Cuando el doctor Jenin intenta devolverle a su planeta, la energia diabólica del experimento le atrapa, transformandole en el terrible Señor de las Tinieblas y Howard tendrá que enfrentarse a él.

 

Latino: E-AC3 2.0  –  Ingles: DTS-HD Master Audio 2.0

Ficha técnica

Video trailer de la película

Enlaces de descarga

Rip de Bluray

Descargar Howard the Duck (1986) REMUX 1080p Latino – CMHDD


Aportes de DPeliculasHDmega la pass es:dpeliculashdmega.org Aportes de CinemaniaHD la pass es:cinemaniahdd.com

Películas relacionadas

Howard the Duck (1986) REMUX 1080p Latino – CMHDD pelicula full hd, Howard the Duck (1986) REMUX 1080p Latino – CMHDD mega latino, Howard the Duck (1986) REMUX 1080p Latino – CMHDD 4k latino, Howard the Duck (1986) REMUX 1080p Latino – CMHDD pelicula completa, Howard the Duck (1986) REMUX 1080p Latino – CMHDD descargar gratis, descargar Howard the Duck (1986) REMUX 1080p Latino – CMHDD pelicula latino, Howard the Duck (1986) REMUX 1080p Latino – CMHDD 1 link mega, Howard the Duck (1986) REMUX 1080p Latino – CMHDD 1 link google drive, Howard the Duck (1986) REMUX 1080p Latino – CMHDD hd 1080p latino.
Comentarios 2
  • Marco Cáceres - 28 julio, 2021

    Solo se ve la opción de paste privado. No está la opción paste público. No sé si es mí computadora o la página

    • Dracarys - 28 julio, 2021

      La mayoría de los REMUX son sol para VIP